<?xml version="1.0" standalone="no"?>
<!DOCTYPE svg PUBLIC "-//W3C//DTD SVG 1.1//EN" "http://www.w3.org/Graphics/SVG/1.1/DTD/svg11.dtd" >
<svg xmlns="http://www.w3.org/2000/svg" xmlns:xlink="http://www.w3.org/1999/xlink" version="1.1">
<metadata>
Created by FontForge 20170731 at Wed Sep 22 15:00:24 2021
 By Aleksey,,,
Copyright (c) 2011 by TypeTogether. All rights reserved.
</metadata>
<defs>
<font id="AbrilDisplay-ExtraBold" horiz-adv-x="1126" >
  <font-face 
    font-family="Abril Display EB"
    font-weight="800"
    font-stretch="normal"
    units-per-em="2048"
    panose-1="2 0 5 3 0 0 0 2 0 3"
    ascent="1536"
    descent="-512"
    x-height="975"
    cap-height="1434"
    bbox="-444 -944 2826 2150"
    underline-thickness="102"
    underline-position="-307"
    unicode-range="U+0020-FB06"
  />
<missing-glyph horiz-adv-x="409" 
 />
    <glyph glyph-name="ij" unicode="ij" horiz-adv-x="1257" 
d="M119 1309q0 74 46.5 123t141.5 49q86 0 134 -43.5t48 -128.5q0 -78 -46 -126t-140 -48q-100 0 -142 51t-42 123zM25 975h462v-922h125v-53h-581v53h123v869h-129v53zM1122 975v-825q0 -662 -460 -662q-80 0 -137.5 20t-87.5 53.5t-43 69.5t-13 76q0 83 49.5 128.5
t122.5 45.5q70 0 106.5 -39t36.5 -104q0 -44 -12 -84h-59q-19 -32 -19 -60q0 -55 68 -55q71 0 92.5 68.5t21.5 277.5v1037h-170v53h504zM745 1307q0 75 47 124.5t142 49.5q86 0 134 -43.5t48 -128.5q0 -78 -46 -126t-140 -48q-52 0 -89.5 15.5t-57.5 41.5t-29 54.5t-9 60.5z
" />
    <glyph glyph-name="ff" unicode="ff" horiz-adv-x="1404" 
d="M1264 1534q-77 0 -103 -56.5t-26 -174.5v-328h270v-53h-270v-869h249v-53h-696v53h113v869h-316v-869h103v-53h-549v53h113v869h-119v53h119v14q0 264 118 405.5t355 141.5q175 0 260 -133q43 60 88.5 97t118 60t170.5 23q87 0 151 -21t97.5 -56.5t49 -73t15.5 -78.5
q0 -168 -164 -168q-75 0 -112 39t-37 100q0 38 16 84h74q22 59 -2 92t-86 33zM639 1487q-84 0 -119 -52t-35 -180v-280h316v8l35 184q-35 -26 -93 -26q-60 0 -94.5 35.5t-34.5 99.5q0 44 17 86h71q11 30 13 58t-17.5 47.5t-58.5 19.5z" />
    <glyph glyph-name="fi" unicode="fi" horiz-adv-x="1282" 
d="M750 1536q-126 0 -195.5 -73t-69.5 -224v-264h648v-922h114v-53h-540v53h92v869h-314v-869h131v-53h-577v53h113v869h-119v53h119v4q0 135 35.5 244t107.5 190.5t189.5 125.5t273.5 44q178 0 274 -71.5t96 -178.5q0 -89 -51 -139.5t-127 -50.5q-86 0 -128 41t-42 114
q0 28 11 78l90 19q26 71 -12 106t-119 35z" />
    <glyph glyph-name="fl" unicode="fl" horiz-adv-x="1284" 
d="M631 1536q-81 0 -113.5 -56t-32.5 -177v-328h209v-53h-209v-869h119v-53h-565v53h113v869h-119v53h119v4q0 278 120.5 441t352.5 163q211 0 280 -139l182 92h46v-1483h114v-53h-540v53h92v1030l24 125q-25 -20 -82 -20q-62 0 -98.5 36t-36.5 97q0 38 12 88h78
q15 28 16 56.5t-20.5 49.5t-60.5 21z" />
    <glyph glyph-name="ffi" unicode="ffi" horiz-adv-x="1929" 
d="M1397 1536q-126 0 -195 -73t-69 -224v-264h647v-922h125v-53h-582v53h123v869h-313v-869h131v-53h-578v53h113v869h-314v-869h103v-53h-549v53h113v869h-119v53h119v14q0 265 119 406t360 141q106 0 181.5 -45t107.5 -119q128 211 485 211q179 0 275 -72t96 -178
q0 -88 -49 -134t-125 -46q-83 0 -126.5 40.5t-43.5 106.5q0 41 12 91h84q26 71 -12.5 108t-118.5 37zM627 1487q-82 0 -112 -50.5t-30 -181.5v-280h328v8l33 178q-25 -22 -84 -22q-72 0 -115 36t-43 99q0 46 10 88h76q11 30 13 58t-17.5 47.5t-58.5 19.5z" />
    <glyph glyph-name="ffl" unicode="ffl" horiz-adv-x="1935" 
d="M1282 1536q-81 0 -113 -55.5t-32 -177.5v-328h209v-53h-209v-869h118v-53h-565v53h113v869h-318v-869h103v-53h-549v53h113v869h-119v53h119v14q0 265 118 406t359 141q109 0 181 -46t103 -122q102 215 369 215q204 0 274 -139l183 92h45v-1483h114v-53h-540v53h92v1030
l25 125q-25 -20 -82 -20q-62 0 -99 36t-37 97q0 34 13 88h78q15 28 16 56.5t-21 49.5t-61 21zM618 1487q-73 0 -103 -52t-30 -180v-280h318v10l35 176q-25 -22 -84 -22q-72 0 -115 36t-43 99q0 46 10 88h76q11 30 12.5 58t-18 47.5t-58.5 19.5z" />
    <glyph glyph-name="f_k" unicode="fk" horiz-adv-x="1886" 
d="M1329 0v53h103l-244 453l-58 -12v-441h105v-53h-561v53h125v1030l24 125q-25 -20 -82 -20q-62 0 -98.5 36t-36.5 97q0 38 12 88h78q15 28 16 56.5t-20.5 49.5t-60.5 21q-81 0 -113.5 -56t-32.5 -177v-328h209v-53h-209v-869h119v-53h-565v53h113v869h-119v53h119v4
q0 278 120.5 441t352.5 163q211 0 280 -139l182 92h43v-983l41 10l418 359h-164v53h406v-53h-148l-251 -220l358 -649h86v-53h-547z" />
    <glyph glyph-name="f_b" unicode="fb" horiz-adv-x="1845" 
d="M631 1536q-81 0 -113.5 -56t-32.5 -177v-328h209v-53h-209v-869h119v-53h-565v53h113v869h-119v53h119v4q0 278 120.5 441t352.5 163q211 0 280 -139l182 92h39v-717q91 176 295 176q179 0 277 -127.5t98 -382.5q0 -260 -107 -382.5t-329 -122.5q-105 0 -168.5 32
t-104.5 109l-137 -131h-151v1093l24 125q-25 -20 -82 -20q-62 0 -98.5 36t-36.5 97q0 38 12 88h78q15 28 16 56.5t-20.5 49.5t-60.5 21zM1323 901q-81 0 -138 -79.5t-57 -207.5v-335q0 -94 44.5 -162t127.5 -68q86 0 117 96.5t31 346.5q0 161 -12 248.5t-38.5 124
t-74.5 36.5z" />
    <glyph glyph-name="f_h" unicode="fh" horiz-adv-x="1906" 
d="M676 53h123v1030l24 125q-25 -20 -82 -20q-62 0 -98.5 36t-36.5 97q0 38 12 88h78q15 28 16 56.5t-20.5 49.5t-60.5 21q-81 0 -113.5 -56t-32.5 -177v-328h209v-53h-209v-869h119v-53h-565v53h113v869h-119v53h119v4q0 278 120.5 441t352.5 163q211 0 280 -139l182 92h46
v-739q17 41 40 73.5t59.5 62.5t91.5 46t126 16q315 0 315 -342v-600h125v-53h-561v53h103v635q0 123 -22 166t-69 43q-86 0 -147 -89t-61 -216v-539h104v-53h-561v53z" />
    <glyph glyph-name="f_t" unicode="ft" horiz-adv-x="1466" 
d="M799 274v648h-314v-869h242v-53h-698v53h123v869h-129v53h129v37q0 137 24 239.5t77.5 178.5t143.5 114.5t217 38.5q82 0 144 -20t97.5 -53.5t53 -72.5t17.5 -83q0 -82 -43.5 -125t-114.5 -43q-73 0 -112.5 37t-39.5 100q0 30 13 84h71q11 32 11 57q0 34 -24 52t-62 18
q-44 0 -72.5 -16t-43 -50.5t-19.5 -75.5t-5 -104v-313h314v158l336 84v-242h270v-53h-270v-670q0 -93 21.5 -135.5t78.5 -42.5q68 0 111 57t57 162l49 -6q-7 -66 -25 -116.5t-53.5 -96t-98 -70t-149.5 -24.5q-76 0 -132 13t-102 45t-69.5 91t-23.5 145z" />
    <glyph glyph-name="f_j" unicode="fj" horiz-adv-x="1265" 
d="M682 -461q71 0 93 68.5t22 277.5v1037h-312v-869h131v-53h-577v53h113v869h-119v53h119v4q0 135 35.5 244t107.5 190.5t189.5 125.5t273.5 44q178 0 274 -71.5t96 -178.5q0 -89 -51 -139.5t-127 -50.5q-86 0 -128 41t-42 114q0 28 11 78l90 19q26 71 -12 106t-119 35
q-126 0 -195.5 -73t-69.5 -224v-264h645v-825q0 -662 -460 -662q-80 0 -137.5 20t-87.5 53.5t-43 69.5t-13 76q0 83 49.5 128.5t122.5 45.5q70 0 107 -39t37 -104q0 -40 -13 -84h-59q-19 -32 -19 -60q0 -55 68 -55z" />
    <glyph glyph-name="f_f_j" unicode="ffj" horiz-adv-x="1912" 
d="M1329 -461q71 0 93 68.5t22 277.5v1037h-311v-869h131v-53h-578v53h113v869h-314v-869h103v-53h-549v53h113v869h-119v53h119v14q0 266 117 406.5t358 140.5q107 0 184 -45.5t109 -118.5q128 211 485 211q179 0 275 -72t96 -178q0 -88 -49 -134t-125 -46
q-83 0 -126.5 40.5t-43.5 106.5q0 41 12 91h84q26 71 -12.5 108t-118.5 37q-126 0 -195 -73t-69 -224v-264h645v-825q0 -662 -461 -662q-80 0 -137.5 20t-87.5 53.5t-43 69.5t-13 76q0 83 49.5 128.5t122.5 45.5q70 0 107 -39t37 -104q0 -40 -13 -84h-59q-18 -30 -18 -60
q0 -55 67 -55zM627 1487q-82 0 -112 -50.5t-30 -181.5v-280h328v8l33 178q-25 -22 -84 -22q-72 0 -115 36t-43 99q0 46 10 88h76q11 30 13 58t-17.5 47.5t-58.5 19.5z" />
    <glyph glyph-name="f_f_k" unicode="ffk" horiz-adv-x="2539" 
d="M1982 0v53h103l-244 453l-57 -12v-441h104v-53h-561v53h123v1030l25 125q-25 -20 -82 -20q-62 0 -99 36t-37 97q0 34 13 88h78q15 28 16 56.5t-21 49.5t-61 21q-81 0 -113 -55.5t-32 -177.5v-328h209v-53h-209v-869h118v-53h-565v53h113v869h-318v-869h103v-53h-549v53
h113v869h-119v53h119v14q0 547 471 547q110 0 184.5 -46t105.5 -122q102 215 369 215q204 0 274 -139l183 92h45v-983l41 10l418 359h-164v53h405v-53h-147l-252 -220l358 -649h86v-53h-547zM618 1487q-76 0 -104.5 -51t-28.5 -181v-280h318v10l35 176q-25 -22 -84 -22
q-72 0 -115 36t-43 99q0 46 10 88h76q11 30 12.5 58t-18 47.5t-58.5 19.5z" />
    <glyph glyph-name="f_f_b" unicode="ffb" horiz-adv-x="2498" 
d="M1282 1536q-81 0 -113 -55.5t-32 -177.5v-328h209v-53h-209v-869h118v-53h-565v53h113v869h-318v-869h103v-53h-549v53h113v869h-119v53h119v14q0 547 473 547q109 0 183 -46t105 -122q102 215 369 215q204 0 274 -139l183 92h41v-717q91 176 295 176q179 0 276.5 -127
t97.5 -383q0 -260 -107 -382.5t-329 -122.5q-104 0 -167.5 32t-104.5 109l-137 -131h-154v1093l25 125q-25 -20 -82 -20q-62 0 -99 36t-37 97q0 34 13 88h78q15 28 16 56.5t-21 49.5t-61 21zM1976 901q-81 0 -137.5 -79.5t-56.5 -207.5v-335q0 -94 44.5 -162t127.5 -68
q86 0 116.5 96.5t30.5 346.5q0 161 -12 248.5t-38.5 124t-74.5 36.5zM618 1487q-73 0 -103 -52t-30 -180v-280h318v10l35 176q-25 -22 -84 -22q-72 0 -115 36t-43 99q0 46 10 88h76q11 30 12.5 58t-18 47.5t-58.5 19.5z" />
    <glyph glyph-name="f_f_h" unicode="ffh" horiz-adv-x="2557" 
d="M1282 1536q-81 0 -113 -55.5t-32 -177.5v-328h209v-53h-209v-869h118v-53h-565v53h113v869h-318v-869h103v-53h-549v53h113v869h-119v53h119v14q0 266 117 406.5t358 140.5q109 0 182 -46t104 -122q102 215 369 215q204 0 274 -139l183 92h45v-739q17 41 40 73.5
t59.5 62.5t91.5 46t126 16q316 0 316 -342v-600h125v-53h-562v53h103v635q0 123 -21.5 166t-68.5 43q-87 0 -148 -89t-61 -216v-539h104v-53h-561v53h123v1030l25 125q-25 -20 -82 -20q-62 0 -99 36t-37 97q0 34 13 88h78q15 28 16 56.5t-21 49.5t-61 21zM618 1487
q-73 0 -103 -52t-30 -180v-280h318v10l35 176q-25 -22 -84 -22q-72 0 -115 36t-43 99q0 46 10 88h76q11 30 12.5 58t-18 47.5t-58.5 19.5z" />
    <glyph glyph-name="f_f_t" unicode="fft" horiz-adv-x="2115" 
d="M1784 975h270v-53h-270v-670q0 -93 21.5 -135.5t78.5 -42.5q68 0 111 57t57 162l49 -6q-7 -66 -25 -116.5t-53 -96t-97.5 -70t-149.5 -24.5q-76 0 -132 13t-102.5 45t-70 91t-23.5 145v648h-313v-869h249v-53h-706v53h123v869h-316v-869h103v-53h-549v53h113v869h-119v53
h119v14q0 547 473 547q105 0 179.5 -43.5t108.5 -114.5q48 91 142 148t227 57q146 0 219.5 -68t73.5 -161q0 -82 -43.5 -125t-114.5 -43q-73 0 -112 37t-39 100q0 34 12 84h72q10 29 10 57q0 34 -21 52t-59 18q-73 0 -109 -65.5t-36 -180.5v-313h313v160l336 84v-244z
M625 1487q-76 0 -108 -52t-32 -180v-280h326v8l33 178q-25 -22 -84 -22q-72 0 -115 36t-43 99q0 46 10 88h76q11 30 13 58t-17.5 47.5t-58.5 19.5z" />
    <glyph glyph-name="f_iacute" unicode="f&#xed;" horiz-adv-x="1284" 
d="M604 1534q-38 0 -62.5 -16t-36.5 -50.5t-16 -75t-4 -104.5v-313h650v-922h125v-53h-562v53h103v869h-316v-869h125v-53h-581v53h123v869h-129v53h129v37q0 277 108 424t344 147q77 0 134 -20.5t87.5 -54t45 -70t14.5 -74.5q0 -79 -41 -121.5t-107 -42.5q-69 0 -107 36
t-38 95q0 30 12 76h70q27 46 7.5 86.5t-77.5 40.5zM895 1116l139 383l96 25q45 11 83 -14.5t38 -73.5q0 -56 -55 -111l-270 -227z" />
    <glyph glyph-name="t_t.alt" unicode="tt" horiz-adv-x="1478" 
d="M856 258v664h-440v-672q0 -93 23.5 -134.5t88.5 -41.5q144 0 172 219l48 -6q-7 -66 -24.5 -116.5t-52 -96t-95 -70t-144.5 -24.5q-71 0 -124 13t-95.5 43.5t-65 86t-22.5 135.5v664h-133v53h133v264l291 74v-338h440v264l291 74v-338h274v-53h-274v-672q0 -93 24 -134.5
t89 -41.5q144 0 172 219l47 -6q-7 -66 -24.5 -116.5t-52 -96t-95 -70t-144.5 -24.5q-71 0 -124 13t-95.5 43.5t-65 86t-22.5 135.5z" />
    <glyph glyph-name=".notdef" horiz-adv-x="409" 
 />
    <glyph glyph-name=".null" horiz-adv-x="0" 
 />
    <glyph glyph-name="nonmarkingreturn" horiz-adv-x="682" 
 />
    <glyph glyph-name="space" unicode=" " horiz-adv-x="409" 
 />
    <glyph glyph-name="exclam" unicode="!" horiz-adv-x="772" 
d="M354 365v182q0 116 -17.5 235t-38.5 199.5t-38.5 168.5t-17.5 148q0 82 44 120t111 38q65 0 105.5 -37.5t40.5 -120.5q0 -65 -19.5 -154t-43 -167.5t-43 -196.5t-19.5 -235v-180h-64zM236 127q0 64 39 106.5t108 42.5q68 0 108.5 -36.5t40.5 -108.5q0 -69 -39 -110
t-108 -41q-78 0 -113.5 42t-35.5 105z" />
    <glyph glyph-name="quotedbl" unicode="&#x22;" horiz-adv-x="716" 
d="M477 1012l-57 516q74 45 125 45q31 0 49 -19.5t18 -54.5q0 -44 -14 -123l-72 -364h-49zM174 1012l-57 516q74 45 125 45q31 0 49 -19.5t18 -54.5q0 -44 -14 -123l-72 -364h-49z" />
    <glyph glyph-name="numbersign" unicode="#" horiz-adv-x="1236" 
d="M356 0h-92l45 285h-246l19 86h240l61 362h-246l17 88h239l39 266h94l-41 -266h312l39 266h94l-41 -266h248l-15 -88h-243l-58 -362h244l-14 -86h-240l-47 -285h-92l47 285h-316zM786 733h-311l-61 -362h315z" />
    <glyph glyph-name="dollar" unicode="$" horiz-adv-x="1157" 
d="M461 -145v147q-58 8 -133.5 27.5t-91.5 19.5q-18 0 -27.5 -12.5t-22.5 -46.5h-39l-18 469h45q44 -122 118 -221.5t169 -149.5v481q-76 26 -131.5 59t-100 82.5t-67.5 120t-23 162.5q0 146 85 262t237 150v172h63v-162q8 0 24.5 1t24.5 1q28 0 74 -4v164h64v-174
q38 -8 99 -28.5t83 -20.5q17 0 26 9t21 32h33l12 -398h-41q-103 248 -233 320v-432q60 -20 107 -41.5t95 -57t79 -79.5t51 -108.5t20 -143.5q0 -180 -94.5 -303t-257.5 -152v-145h-64v137q-12 -2 -39 -2q-30 0 -84 4v-139h-63zM623 49h24v461q-116 38 -121 39h-2v-488
q46 -12 99 -12zM887 264q0 77 -43.5 129t-132.5 92v-426q77 22 126.5 74.5t49.5 130.5zM629 909l18 -6v443q-43 12 -90 12q-23 0 -33 -2v-416q87 -27 105 -31zM309 1161q0 -71 38.5 -117t113.5 -79v381q-71 -20 -111.5 -69.5t-40.5 -115.5z" />
    <glyph glyph-name="percent" unicode="%" horiz-adv-x="1568" 
d="M817 315q0 158 98 257.5t252 99.5q157 0 248.5 -87t91.5 -253q0 -163 -99 -257.5t-247 -94.5q-165 0 -254.5 93.5t-89.5 241.5zM1044 317q0 -157 23 -224.5t96 -67.5q26 0 45.5 9t32 28.5t20.5 43t12 61t5.5 73.5t1.5 88q0 162 -22.5 229.5t-92.5 67.5q-26 0 -45 -8
t-32.5 -26t-22 -42t-13 -60.5t-6.5 -76.5t-2 -95zM313 0l863 1434h81l-860 -1434h-84zM70 1100q0 158 97.5 257t252.5 99q157 0 248.5 -87t91.5 -253q0 -163 -99 -257.5t-247 -94.5q-165 0 -254.5 94t-89.5 242zM297 1102q0 -157 23 -225t96 -68q26 0 45.5 9t32 28.5
t20.5 43t11.5 61t5 73t1.5 88.5q0 82 -4 132.5t-16 90.5t-35 57t-59 17q-39 0 -63 -18t-36.5 -59t-17 -93.5t-4.5 -136.5z" />
    <glyph glyph-name="ampersand" unicode="&#x26;" horiz-adv-x="1652" 
d="M1034 -428q70 0 120.5 45.5t73.5 113.5t23 148q0 87 -27 153t-79 134q-154 -186 -449 -186q-121 0 -220 21.5t-177.5 66t-122 121t-43.5 178.5q0 134 71 221t228 137q-82 77 -122 157.5t-40 182.5q0 98 38.5 174.5t104 123t145.5 70t169 23.5q190 0 284.5 -71.5
t94.5 -194.5q0 -223 -326 -346q78 -55 185 -121q202 -128 295 -215q31 127 38 287h-155v55h356v-55h-137q-10 -193 -47 -340q86 -95 129 -185t43 -221q0 -140 -66.5 -264t-179.5 -198t-240 -74q-129 0 -198.5 55t-69.5 145q0 75 44.5 120.5t113.5 45.5q71 0 110 -34t39 -101
q0 -30 -12 -74h-70q-8 -21 -8 -43q0 -55 84 -55zM754 66q219 0 346 155q-49 54 -109.5 101t-154.5 108q-25 16 -99.5 64.5t-105 69t-78.5 55.5t-82 65q-47 -70 -47 -262t83 -274t247 -82zM522 1196q0 -95 46.5 -164.5t168.5 -157.5q95 50 127.5 122t32.5 186q0 229 -176 229
q-37 0 -70.5 -10.5t-63.5 -34t-47.5 -67.5t-17.5 -103z" />
    <glyph glyph-name="quotesingle" unicode="'" horiz-adv-x="399" 
d="M170 1012l-57 516q74 45 125 45q31 0 49 -19.5t18 -54.5q0 -44 -14 -123l-72 -364h-49z" />
    <glyph glyph-name="parenleft" unicode="(" horiz-adv-x="710" 
d="M104 647q0 137 25.5 271t78 255t125.5 215.5t175.5 153.5t220.5 66l2 -41q-44 -4 -78 -17t-60.5 -40t-45.5 -60.5t-32.5 -92t-21.5 -120t-12.5 -158t-6 -193.5t-1.5 -237t1.5 -238.5t6.5 -192.5t13 -155.5t22 -117.5t32.5 -89t45.5 -59.5t60 -39.5t77 -19l-2 -43
q-124 8 -228.5 67.5t-176.5 152.5t-122.5 214.5t-74 252t-23.5 265.5z" />
    <glyph glyph-name="parenright" unicode=")" horiz-adv-x="710" 
d="M606 659q0 -137 -25.5 -270.5t-78 -255t-125 -215.5t-175 -153t-220.5 -66l-2 41q44 4 78 16.5t60.5 40t45.5 61t32.5 91.5t21.5 120t12.5 158t6 193t1.5 237t-1.5 238.5t-6.5 192.5t-13 156t-22 118t-32.5 89t-45.5 59.5t-60 39.5t-77 19l2 43q124 -8 228.5 -67.5
t176.5 -153t122 -215t73.5 -252t23.5 -265.5z" />
    <glyph glyph-name="asterisk" unicode="*" horiz-adv-x="1062" 
d="M922 1260l-359 -70l260 -72q23 -7 38 -12.5t32.5 -16.5t26 -27t8.5 -38q0 -85 -127 -137l-254 272l82 -364q-64 -50 -125 -50q-42 0 -67 20.5t-25 55.5q0 43 16 94l82 246l-248 -274q-51 18 -89 53t-38 84q0 40 29 61t84 35l246 70l-353 70q-8 31 -8 67q0 47 23.5 85
t68.5 38q28 0 49 -13t60 -48l180 -170l-82 346q62 51 125 51q40 0 66 -21.5t26 -56.5q0 -38 -24 -106l-74 -215l174 172q61 61 113 61q45 0 68.5 -34.5t23.5 -88.5q0 -36 -8 -67z" />
    <glyph glyph-name="plus" unicode="+" 
d="M1028 612h-430v-424h-82v424h-418v74h418v399h82v-399h430v-74z" />
    <glyph glyph-name="comma" unicode="," horiz-adv-x="532" 
d="M178 -319l-31 38q105 97 146 161.5t41 121.5q0 35 -14 56t-37 24l-86 -78q-45 14 -81 55t-36 99q0 71 46.5 115t117.5 44q92 0 142 -63.5t50 -161.5q0 -115 -60.5 -211.5t-197.5 -199.5z" />
    <glyph glyph-name="hyphen" unicode="-" horiz-adv-x="692" 
d="M94 512v119h504v-119h-504z" />
    <glyph glyph-name="period" unicode="." horiz-adv-x="542" 
d="M100 147q0 75 44.5 123.5t123.5 48.5q80 0 127 -41t47 -124q0 -80 -44 -127t-124 -47q-90 0 -132 49.5t-42 117.5z" />
    <glyph glyph-name="slash" unicode="/" horiz-adv-x="718" 
d="M16 -199l605 1827h81l-602 -1827h-84z" />
    <glyph glyph-name="zero" unicode="0" horiz-adv-x="1310" 
d="M63 719q0 195 44.5 340t125.5 230t186 126t236 41q132 0 237.5 -40t187 -125.5t125.5 -230t44 -341.5q0 -158 -30 -283.5t-82.5 -210t-127.5 -140.5t-163 -80.5t-191 -24.5q-150 0 -265 55t-185.5 154.5t-106 233t-35.5 296.5zM434 715q0 -122 2 -201.5t7 -157.5t15 -124
t25.5 -86.5t40 -60.5t56 -31t75.5 -11q51 0 86.5 12.5t61 47t40 79.5t23 127.5t11 171.5t2.5 230q0 95 -1 163t-4 135.5t-8.5 113.5t-13.5 89.5t-20.5 70.5t-29 50t-38.5 35t-48.5 18.5t-60.5 6.5q-37 0 -66 -7.5t-51.5 -27t-39 -44.5t-28 -68.5t-18.5 -90.5t-11 -118.5
t-5.5 -145t-1.5 -176.5z" />
    <glyph glyph-name="one" unicode="1" horiz-adv-x="862" 
d="M276 1362l-231 -27l-8 60l450 61h142v-1397h172v-59h-744v59h219v1303z" />
    <glyph glyph-name="two" unicode="2" horiz-adv-x="1105" 
d="M80 0v201l235 233q203 200 284 348t81 342q0 145 -43 207t-150 62q-76 0 -120.5 -36t-44.5 -95q0 -34 12 -68h55q17 -46 17 -94q0 -65 -47 -105.5t-119 -40.5q-82 0 -125 51.5t-43 129.5q0 143 120.5 232t342.5 89q232 0 353.5 -90t121.5 -260q0 -43 -5.5 -78.5
t-24.5 -76.5t-41 -75t-69.5 -84t-95 -94.5t-132 -115.5t-166.5 -137t-212 -169h455q71 0 118.5 15t76.5 49t44.5 74.5t28.5 105.5h49l-18 -520h-938z" />
    <glyph glyph-name="three" unicode="3" horiz-adv-x="1138" 
d="M543 1456q458 0 458 -323q0 -132 -102 -221.5t-295 -129.5q241 -22 355 -120t114 -256q0 -195 -157 -310.5t-427 -115.5q-63 0 -121.5 9t-116 31t-100 55.5t-68.5 87t-26 120.5q0 81 43.5 133.5t126.5 52.5q71 0 116.5 -40.5t45.5 -106.5q0 -49 -16 -95h-56
q-10 -42 -10 -67q0 -55 46.5 -86t129.5 -31q128 0 181 87.5t53 268.5q0 103 -24.5 175t-62 109.5t-95.5 64.5q-96 -20 -185 -29l-8 63q93 10 148 27t96 54.5t57 100t16 162.5q0 136 -38.5 202.5t-124.5 66.5q-75 0 -116.5 -35.5t-41.5 -89.5q0 -29 10 -62h53q17 -46 17 -90
q0 -65 -46 -105t-116 -40q-81 0 -122.5 49.5t-41.5 126.5q0 139 120 223t331 84z" />
    <glyph glyph-name="four" unicode="4" horiz-adv-x="1212" 
d="M389 0v59h193v308h-562v51l582 1016h316v-1000h184v160h57v-379h-57v152h-184v-308h141v-59h-670zM111 434h471v828z" />
    <glyph glyph-name="five" unicode="5" horiz-adv-x="1093" 
d="M457 809q-121 0 -264 -88l-39 18v672l32 25q125 -18 360.5 -43t280.5 -25q34 0 52 19.5t30 66.5l45 -6q-18 -154 -37.5 -234t-44.5 -109.5t-67 -29.5q-41 0 -170 37l-412 115l-8 -424q146 76 309 76q111 0 198.5 -24.5t143 -64.5t92 -96.5t51.5 -116t15 -126.5
q0 -219 -153 -345t-412 -126q-58 0 -113.5 9t-112 31.5t-98 56.5t-68 89t-26.5 125q0 77 44 128.5t126 51.5q71 0 116.5 -41t45.5 -108q0 -47 -17 -93h-55q-12 -35 -12 -63q0 -55 43 -89t121 -34q120 0 162 100.5t42 323.5q0 189 -41 265.5t-159 76.5z" />
    <glyph glyph-name="six" unicode="6" horiz-adv-x="1208" 
d="M70 631q0 396 170.5 610.5t464.5 214.5q194 0 299.5 -80.5t105.5 -208.5q0 -73 -46.5 -122.5t-123.5 -49.5q-68 0 -114 40t-46 106q0 33 15 84l51 2q8 31 8 65q0 103 -141 103q-95 0 -155 -55.5t-95 -200t-37 -389.5q104 161 319 161q185 0 300.5 -110t115.5 -318
q0 -232 -145.5 -367.5t-394.5 -135.5q-268 0 -409.5 157t-141.5 494zM430 451q0 -88 3 -143.5t13.5 -111t30.5 -86t54.5 -49t84.5 -18.5t85 19.5t55.5 51t32 85.5t15 108.5t3.5 134.5q0 217 -32.5 300t-125.5 83q-73 0 -127.5 -50.5t-75.5 -129.5q-16 -61 -16 -194z" />
    <glyph glyph-name="seven" unicode="7" horiz-adv-x="1019" 
d="M233 215q0 71 25.5 135t102 171.5t235.5 299.5l281 338h-504q-51 0 -84 -2.5t-61 -11.5t-44.5 -22t-30.5 -38t-22.5 -55t-17.5 -78h-50l21 482h926v-183l-187 -327q-91 -159 -148.5 -277t-83.5 -199t-34 -130t-8 -105q0 -91 65 -184l-24 -39q-156 -28 -256.5 35
t-100.5 190z" />
    <glyph glyph-name="eight" unicode="8" horiz-adv-x="1214" 
d="M498 754q-190 15 -295 104t-105 229q0 171 132 270t380 99q247 0 378.5 -95t131.5 -265q0 -145 -101 -235t-290 -107v-6q430 -41 430 -375q0 -393 -549 -393q-277 0 -416 100t-139 291q0 166 111.5 263t331.5 114v6zM610 715q-112 0 -157 -82t-45 -262q0 -173 44 -250.5
t158 -77.5t158.5 79t44.5 255q0 175 -46 256.5t-157 81.5zM446 1096q0 -167 34.5 -238.5t135.5 -71.5q96 0 128 71t32 239q0 153 -34.5 225t-131.5 72q-40 0 -69 -13t-47 -36.5t-29 -62t-15 -82t-4 -103.5z" />
    <glyph glyph-name="nine" unicode="9" horiz-adv-x="1208" 
d="M1143 797q0 -397 -166 -607t-461 -210q-198 0 -311 80.5t-113 203.5q0 80 45.5 135.5t126.5 55.5q70 0 115 -41.5t45 -110.5q0 -39 -14 -86h-54q-14 -28 -14 -67q0 -48 44.5 -77.5t127.5 -29.5q92 0 150 61t88.5 204.5t31.5 381.5q-101 -166 -319 -166q-182 0 -299 119
t-117 330q0 121 42.5 215t118 151.5t174.5 87t216 29.5q262 0 402.5 -160.5t140.5 -498.5zM754 772q26 79 26 205q0 75 -2 125t-8 102t-18.5 83t-32 57t-49 37.5t-70.5 11.5q-51 0 -87 -19.5t-56.5 -51t-32 -85.5t-15 -107.5t-3.5 -132.5q0 -227 30 -309t127 -82
q64 0 114.5 46t76.5 120z" />
    <glyph glyph-name="colon" unicode=":" horiz-adv-x="542" 
d="M100 825q0 75 44.5 123.5t123.5 48.5q80 0 127 -41.5t47 -124.5q0 -80 -44 -127t-124 -47q-90 0 -132 50t-42 118zM100 147q0 75 44.5 123.5t123.5 48.5q80 0 127 -41t47 -124q0 -80 -44 -127t-124 -47q-90 0 -132 49.5t-42 117.5z" />
    <glyph glyph-name="semicolon" unicode=";" horiz-adv-x="532" 
d="M178 -319l-31 38q105 97 146 161.5t41 121.5q0 35 -14 56t-37 24l-86 -78q-45 14 -81 55t-36 99q0 71 46.5 115t117.5 44q92 0 142 -63.5t50 -161.5q0 -115 -60.5 -211.5t-197.5 -199.5zM88 825q0 75 44.5 123.5t123.5 48.5q80 0 127 -41.5t47 -124.5q0 -80 -44 -127
t-124 -47q-90 0 -132 50t-42 118z" />
    <glyph glyph-name="less" unicode="&#x3c;" 
d="M1026 176l-926 395v58l926 389v-78l-811 -338l811 -344v-82z" />
    <glyph glyph-name="equal" unicode="=" 
d="M1028 383h-930v74h930v-74zM98 776h930v-74h-930v74z" />
    <glyph glyph-name="greater" unicode="&#x3e;" 
d="M1026 571l-926 -395v82l811 344l-811 338v78l926 -389v-58z" />
    <glyph glyph-name="question" unicode="?" horiz-adv-x="1155" 
d="M565 1456q213 0 331 -88t118 -248q0 -99 -50 -181t-139 -163l-301 -272v-150h-51v426q0 35 23 58l133 137q60 60 82 111t22 128q0 92 -51.5 142.5t-146.5 50.5q-88 0 -129 -40.5t-41 -94.5q0 -21 10 -51h53q16 -43 16 -91q0 -67 -46 -108t-117 -41q-80 0 -122 50t-42 126
q0 128 118 213.5t330 85.5zM348 127q0 64 40 106.5t108 42.5t109.5 -36.5t41.5 -108.5q0 -69 -39 -110t-108 -41q-80 0 -116 42t-36 105z" />
    <glyph glyph-name="at" unicode="@" horiz-adv-x="1783" 
d="M889 809q106 0 186 -70l31 56h197l-66 -373q-25 -156 -25 -217q0 -81 23.5 -115.5t75.5 -34.5q104 0 182 115t78 311q0 282 -172 454.5t-451 172.5q-148 0 -281 -52t-233 -146t-158.5 -235.5t-58.5 -309.5q0 -141 42 -256t112 -192t164 -129.5t194 -75.5t205 -23
q267 0 475 166l41 -48q-98 -89 -234.5 -135.5t-295.5 -46.5q-122 0 -234.5 26.5t-213 84.5t-174.5 141.5t-117.5 206t-43.5 270.5q0 172 58.5 322t163 259.5t257 172.5t332.5 63q151 0 278.5 -44.5t221.5 -129.5t146.5 -216t52.5 -296q0 -244 -110 -371.5t-302 -127.5
q-109 0 -165.5 38.5t-78.5 108.5q-68 -143 -231 -143q-139 0 -209 93.5t-70 248.5q0 112 37.5 205.5t97 151t131 89t142.5 31.5zM993 272l66 414q-67 70 -139 70q-51 0 -91 -37.5t-63.5 -93.5t-39 -127.5t-21 -132t-5.5 -113.5q0 -104 25.5 -150.5t79.5 -46.5q70 0 119.5 63
t68.5 154z" />
    <glyph glyph-name="A" unicode="A" horiz-adv-x="1406" 
d="M905 59l-143 418h-416l-151 -418h153v-59h-340v59h107l514 1375h151l506 -1375h111v-59h-641v59h149zM563 1069l-196 -532h376z" />
    <glyph glyph-name="B" unicode="B" horiz-adv-x="1329" 
d="M51 1434h576q138 0 239 -17t176.5 -55.5t113.5 -105t38 -160.5q0 -279 -332 -334v-4q194 -25 299 -113.5t105 -241.5q0 -95 -31.5 -165.5t-86.5 -115.5t-139 -72.5t-178.5 -38.5t-214.5 -11h-565v59h144v1315h-144v60zM547 717v-658h96q141 0 194.5 78.5t53.5 261.5
q0 170 -61 244t-222 74h-61zM547 1374v-602h53q135 0 185.5 73.5t50.5 246.5q0 160 -48 221t-176 61h-65z" />
    <glyph glyph-name="C" unicode="C" horiz-adv-x="1392" 
d="M803 1399q-70 0 -123 -21t-96.5 -69t-71 -126t-42.5 -193.5t-15 -268.5q0 -347 89 -515.5t271 -168.5q133 0 236.5 107t175.5 309h43l-15 -451h-30q-15 41 -51 41q-24 0 -81 -15.5t-141.5 -31.5t-177.5 -16q-329 0 -509.5 179.5t-180.5 545.5q0 181 51 324.5t144 236.5
t220 141.5t281 48.5q87 0 166 -16t132 -31.5t79 -15.5q23 0 31.5 9t15.5 32h33l16 -439h-45q-144 404 -405 404z" />
    <glyph glyph-name="D" unicode="D" horiz-adv-x="1525" 
d="M1440 741q0 -170 -41.5 -299t-114.5 -212t-181.5 -135.5t-231 -73.5t-275.5 -21h-547v59h146v1315h-146v60h602q194 0 337 -37t246 -118t154.5 -215t51.5 -323zM549 59h80q158 0 251 65t138 213.5t45 403.5q0 160 -18.5 271.5t-52 182.5t-92.5 110.5t-129 54t-173 14.5
h-49v-1315z" />
    <glyph glyph-name="E" unicode="E" horiz-adv-x="1273" 
d="M53 1434h1069l21 -400h-47q-63 196 -161 268t-288 72h-110v-612h79q100 0 158 66.5t84 195.5h47v-606h-51q-32 155 -89 216.5t-169 61.5h-59v-637h112q198 0 320 99.5t164 281.5h45l-17 -440h-1108v59h131v1315h-131v60z" />
    <glyph glyph-name="F" unicode="F" horiz-adv-x="1208" 
d="M53 1434h1051l20 -418h-51q-32 110 -69.5 179t-92 109t-120.5 55t-164 15h-90v-639h98q100 0 158.5 64.5t80.5 195.5h46v-606h-50q-29 157 -81 218t-158 61h-94v-609h258v-59h-742v59h131v1315h-131v60z" />
    <glyph glyph-name="G" unicode="G" horiz-adv-x="1472" 
d="M788 37q95 0 136 36.5t49 108.5v342h-146v60h576v-60h-94v-522h-41q-13 26 -32 38.5t-54 12.5q-30 0 -95.5 -18.5t-150.5 -36.5t-162 -18q-329 0 -509.5 178.5t-180.5 541.5q0 182 51.5 326.5t145 238t221 142.5t282.5 49q87 0 166.5 -16t134 -31.5t80.5 -15.5q20 0 28 9
t15 32h39l15 -439h-48q-69 183 -175.5 293.5t-239.5 110.5q-86 0 -147.5 -35t-107 -114t-67.5 -214t-22 -329q0 -670 333 -670z" />
    <glyph glyph-name="H" unicode="H" horiz-adv-x="1540" 
d="M53 1434h615v-60h-131v-606h467v606h-132v60h615v-60h-131v-1315h131v-59h-615v59h132v635h-467v-635h131v-59h-615v59h131v1315h-131v60z" />
    <glyph glyph-name="I" unicode="I" horiz-adv-x="720" 
d="M61 1434h598v-60h-122v-1315h122v-59h-598v59h123v1315h-123v60z" />
    <glyph glyph-name="J" unicode="J" horiz-adv-x="1009" 
d="M334 1434h641v-60h-123v-878q0 -262 -116.5 -388t-348.5 -126q-159 0 -246.5 61.5t-87.5 173.5q0 85 47 133.5t125 48.5q71 0 110.5 -40.5t39.5 -102.5q0 -51 -17 -109h-61q-14 -22 -14 -47q0 -29 27 -48t67 -19q49 0 74.5 25.5t36 88.5t10.5 187v1040h-164v60z" />
    <glyph glyph-name="K" unicode="K" horiz-adv-x="1460" 
d="M61 1434h598v-60h-122v-622l32 8l535 614h-143v60h372v-60h-131l-364 -424l489 -891h121v-59h-627v59h103l-346 623l-41 -8v-615h122v-59h-598v59h123v1315h-123v60z" />
    <glyph glyph-name="L" unicode="L" horiz-adv-x="1214" 
d="M53 1434h701v-60h-217v-1315h94q95 0 169 27.5t129 84t95.5 127.5t79.5 175h53l-35 -473h-1069v59h131v1315h-131v60z" />
    <glyph glyph-name="M" unicode="M" horiz-adv-x="1757" 
d="M1163 1434h531v-60h-123v-1315h123v-59h-598v59h123v1272h-9l-340 -1331h-221l-385 1335h-8v-1276h123v-59h-318v59h123v1315h-123v60h539l293 -1061z" />
    <glyph glyph-name="N" unicode="N" horiz-adv-x="1417" 
d="M1235 1374v-1374h-242l-737 1325v-1266h123v-59h-318v59h123v1315h-123v60h539l563 -1031v971h-123v60h318v-60h-123z" />
    <glyph glyph-name="O" unicode="O" horiz-adv-x="1513" 
d="M1055 717q0 110 -2.5 185t-9.5 151.5t-20 125.5t-34.5 93.5t-53 68.5t-75 38t-100.5 14q-58 0 -102.5 -14.5t-76.5 -39.5t-54.5 -70.5t-36 -96.5t-21 -129t-10 -156t-2.5 -189q0 -98 3 -170.5t10.5 -144.5t21.5 -121.5t37 -93.5t54.5 -70t75.5 -40.5t101 -14.5
q76 0 128.5 26.5t85 75t50.5 135t24.5 186.5t6.5 251zM84 698q0 353 181.5 555.5t508.5 202.5q319 0 487.5 -191.5t168.5 -541.5q0 -353 -170 -548t-508 -195q-330 0 -499 186t-169 532z" />
    <glyph glyph-name="P" unicode="P" horiz-adv-x="1294" 
d="M41 1434h582q147 0 253.5 -19t189 -64t124 -125.5t41.5 -197.5q0 -103 -32.5 -180.5t-88.5 -127.5t-141 -81.5t-182 -44t-218 -12.5h-32v-523h256v-59h-752v59h143v1315h-143v60zM537 1374v-733h59q146 0 203 87.5t57 299.5q0 141 -25 215.5t-76.5 102.5t-146.5 28h-71z
" />
    <glyph glyph-name="Q" unicode="Q" horiz-adv-x="1513" 
d="M84 698q0 353 181.5 555.5t508.5 202.5q319 0 487.5 -191.5t168.5 -541.5q0 -325 -144 -512.5t-436 -214.5v-10q57 -6 99.5 -23t70 -44.5t44 -57t30.5 -70.5q30 -88 51 -118.5t67 -30.5q38 0 58.5 35.5t29.5 119.5l50 -4q-4 -126 -76 -196t-193 -70q-77 0 -133.5 19
t-93.5 57.5t-60 83.5t-42 110q-25 84 -44 108.5t-49 24.5q-51 0 -145 -82l-31 35q34 32 83 60.5t93 36.5v8q-281 26 -428 210t-147 500zM1055 717q0 95 -1.5 162.5t-6.5 138t-14.5 117.5t-24.5 93t-37 74t-52 50t-69.5 31.5t-89.5 9.5q-58 0 -102.5 -14.5t-76.5 -40
t-54.5 -71t-36 -96.5t-21 -129t-10 -155.5t-2.5 -188.5q0 -115 4 -196t15.5 -160.5t32.5 -130.5t54 -91t82 -58.5t115 -18.5q63 0 110 17t79.5 55.5t53 89.5t32.5 131.5t16 168.5t4 212z" />
    <glyph glyph-name="R" unicode="R" horiz-adv-x="1433" 
d="M653 707h-116v-648h153v-59h-649v59h143v1315h-143v60h586q108 0 185 -5t151 -18t122.5 -37t86 -61.5t54.5 -92t17 -128.5q0 -92 -24.5 -157t-73.5 -104.5t-112.5 -60t-151.5 -27.5v-6q175 -22 249 -98t74 -250v-119q0 -96 12.5 -132t55.5 -36q33 0 51 33t39 144l49 -9
q-12 -82 -27 -132t-44.5 -88t-76.5 -54t-120 -16q-177 0 -242 73.5t-65 268.5v178q0 104 -43.5 155.5t-139.5 51.5zM537 1374v-610h61q139 0 203.5 75.5t64.5 254.5q0 62 -7 107.5t-23.5 76t-36.5 50t-52.5 29.5t-65 13.5t-79.5 3.5h-65z" />
    <glyph glyph-name="S" unicode="S" horiz-adv-x="1210" 
d="M643 37q117 0 202 61t85 166q0 44 -10 78.5t-35 62.5t-53 48t-78 40.5t-95 34.5t-118 35q-67 19 -117 37t-101 44.5t-86 60t-63 78t-41.5 103.5t-13.5 132q0 86 31 163.5t88 139.5t148.5 98.5t203.5 36.5q78 0 151 -16t123.5 -31.5t73.5 -15.5q21 0 31 9t20 32h35
l14 -414h-43q-38 85 -75.5 147t-89 118t-117.5 85t-146 29q-117 0 -188.5 -59.5t-71.5 -151.5q0 -45 17.5 -81t44.5 -61t75.5 -47.5t92.5 -37t114 -33.5q60 -16 98 -27t93 -32.5t90 -44t74.5 -58t62.5 -77.5t38 -100t15 -128q0 -216 -134 -348.5t-359 -132.5q-86 0 -175 15
t-150.5 30.5t-80.5 15.5t-30.5 -14t-24.5 -47h-39l-20 481h45q35 -85 82 -158.5t107.5 -134.5t138 -96t161.5 -35z" />
    <glyph glyph-name="T" unicode="T" horiz-adv-x="1372" 
d="M1282 1434l21 -488h-52q-34 129 -65 207t-73.5 130t-95 71.5t-130.5 19.5h-25v-1315h180v-59h-712v59h180v1315h-27q-149 0 -223 -91.5t-139 -336.5h-53l20 488h1194z" />
    <glyph glyph-name="U" unicode="U" horiz-adv-x="1413" 
d="M840 63q159 0 249.5 100.5t90.5 301.5v909h-129v60h319v-60h-117v-895q0 -97 -15 -171.5t-51 -138t-95 -104t-149.5 -63t-211.5 -22.5q-103 0 -185 15.5t-153 52t-118.5 94.5t-74 146t-26.5 204v882h-123v60h613v-60h-138v-934q0 -86 13.5 -150t47 -117.5t97 -81.5
t156.5 -28z" />
    <glyph glyph-name="V" unicode="V" horiz-adv-x="1388" 
d="M840 381l358 993h-160v60h342v-60h-104l-498 -1382h-145l-514 1382h-111v60h647v-60h-155z" />
    <glyph glyph-name="W" unicode="W" horiz-adv-x="2072" 
d="M825 395l205 621l-119 358h-125v60h619v-60h-137l319 -954l268 954h-204v60h413v-60h-133l-395 -1384h-154l-313 915l-299 -915h-147l-502 1384h-113v60h643v-60h-153z" />
    <glyph glyph-name="X" unicode="X" horiz-adv-x="1425" 
d="M1405 0h-672v59h148l-316 551l-336 -551h201v-59h-424v59h144l372 621l-405 694h-123v60h663v-60h-151l278 -489l308 489h-199v60h420v-60h-139l-349 -555l451 -760h129v-59z" />
    <glyph glyph-name="Y" unicode="Y" horiz-adv-x="1296" 
d="M782 762l291 612h-194v60h407v-60h-141l-320 -672v-643h138v-59h-627v59h137v615l-350 700h-115v60h635v-60h-141z" />
    <glyph glyph-name="Z" unicode="Z" horiz-adv-x="1261" 
d="M1143 1434v-56l-641 -1319h129q377 0 491 430h49l-24 -489h-1047v49l648 1325h-136q-78 0 -130.5 -9t-99 -31.5t-83 -67.5t-70.5 -109.5t-73 -165.5h-50l29 443h1008z" />
    <glyph glyph-name="bracketleft" unicode="[" horiz-adv-x="657" 
d="M678 -262v-55h-539v1927h539v-56h-98q-76 0 -97.5 -18t-21.5 -88v-1602q0 -27 1.5 -44t7 -30t12 -19t22 -10t30.5 -4.5t44 -0.5h100z" />
    <glyph glyph-name="backslash" unicode="\" horiz-adv-x="718" 
d="M100 1628l605 -1827h-87l-602 1827h84z" />
    <glyph glyph-name="bracketright" unicode="]" horiz-adv-x="655" 
d="M-20 -317v55h100q29 0 44 0.5t30.5 4.5t22 10t12 19t7 30t1.5 44v1602q0 70 -21.5 88t-97.5 18h-98v56h538v-1927h-538z" />
    <glyph glyph-name="asciicircum" unicode="^" horiz-adv-x="1128" 
d="M1016 614l-76 -30l-389 688l-358 -690l-78 32l387 746h100z" />
    <glyph glyph-name="underscore" unicode="_" horiz-adv-x="1024" 
d="M1024 -217h-1024v76h1024v-76z" />
    <glyph glyph-name="grave" unicode="`" horiz-adv-x="1024" 
d="M496 1499l139 -383l-31 -18l-270 227q-55 55 -55 111q0 48 37.5 73.5t82.5 14.5z" />
    <glyph glyph-name="a" unicode="a" horiz-adv-x="1107" 
d="M512 489h76v150q0 181 -27.5 244t-105.5 63q-51 0 -81 -19.5t-30 -54.5q0 -26 8 -47h54q16 -43 16 -88q0 -68 -46.5 -108.5t-117.5 -40.5q-81 0 -120.5 43t-39.5 117q0 122 107 184.5t303 62.5q117 0 193 -18.5t127 -64t72.5 -118.5t21.5 -186v-397q0 -115 59 -115
q30 0 48 40.5t28 156.5l47 -4q-7 -174 -64 -241.5t-186 -67.5q-222 0 -256 143q-33 -73 -92.5 -108t-157.5 -35q-299 0 -299 245q0 63 21.5 109.5t59 76t97 47t127.5 24.5t158 7zM469 72q46 0 82.5 55.5t36.5 146.5v164h-31q-88 0 -126 -46.5t-38 -155.5q0 -94 18 -129
t58 -35z" />
    <glyph glyph-name="b" unicode="b" horiz-adv-x="1193" 
d="M672 901q-81 0 -138 -79.5t-57 -207.5v-335q0 -94 44.5 -162t127.5 -68q86 0 117 96.5t31 346.5q0 161 -12 248.5t-38.5 124t-74.5 36.5zM475 1536v-717q91 176 295 176q179 0 277 -127.5t98 -382.5q0 -260 -107 -382.5t-329 -122.5q-105 0 -168.5 32t-104.5 109
l-137 -131h-154v1493h-122v53h452z" />
    <glyph glyph-name="c" unicode="c" horiz-adv-x="985" 
d="M588 946q-71 0 -112.5 -42t-63 -144.5t-21.5 -280.5q0 -231 50 -324.5t175 -93.5q65 0 115.5 23.5t81.5 64.5t49 82.5t29 90.5l55 -9q-7 -33 -14.5 -59t-23.5 -62t-36 -63.5t-53 -57t-73.5 -48.5t-98.5 -31t-127 -12q-230 0 -354.5 127.5t-124.5 365.5q0 255 141.5 388.5
t390.5 133.5q178 0 272.5 -70t94.5 -190q0 -89 -43 -135.5t-117 -46.5q-75 0 -120.5 41.5t-45.5 118.5q0 33 11 73h65q12 34 12 66q0 40 -28.5 67t-85.5 27z" />
    <glyph glyph-name="d" unicode="d" horiz-adv-x="1191" 
d="M541 76q68 0 122 60t54 169v397q0 87 -45.5 153.5t-118.5 66.5q-89 0 -121.5 -98.5t-32.5 -340.5q0 -166 12.5 -251t42 -120.5t87.5 -35.5zM739 0l-18 141q-40 -80 -110.5 -120.5t-184.5 -40.5q-178 0 -277.5 127t-99.5 376q0 255 106.5 383.5t305.5 128.5
q184 0 250 -110v598h-142v53h482v-1483h116v-53h-428z" />
    <glyph glyph-name="e" unicode="e" horiz-adv-x="1038" 
d="M41 483q0 129 40 228.5t111.5 160.5t164.5 92t204 31q440 0 422 -467h-592v-67q0 -101 11 -171.5t38.5 -125.5t77.5 -82t125 -27q218 0 287 244l53 -8q-17 -70 -46.5 -123t-79 -97t-127.5 -67.5t-181 -23.5q-252 0 -380 135.5t-128 367.5zM391 584h271q0 215 -23.5 288.5
t-99.5 73.5q-52 0 -83 -30t-48 -110.5t-17 -221.5z" />
    <glyph glyph-name="f" unicode="f" horiz-adv-x="755" 
d="M625 1534q-44 0 -72.5 -16t-43 -50.5t-19.5 -75.5t-5 -104v-313h267v-53h-267v-869h250v-53h-706v53h123v869h-129v53h129v37q0 137 24 239.5t77.5 178.5t143.5 114.5t217 38.5q82 0 144 -20t97.5 -53.5t53 -72.5t17.5 -83q0 -82 -43.5 -125t-114.5 -43q-73 0 -112.5 37
t-39.5 100q0 30 13 84h71q11 32 11 57q0 34 -24 52t-62 18z" />
    <glyph glyph-name="g" unicode="g" horiz-adv-x="1060" 
d="M911 662q0 -168 -108.5 -259.5t-294.5 -91.5q-69 0 -160 17q-100 -64 -100 -97q0 -10 9.5 -15.5t35.5 -9t72 -3.5h227q76 0 137 -7.5t121.5 -29t101 -57t65.5 -94.5t25 -138q0 -180 -137.5 -284.5t-433.5 -104.5q-247 0 -366 58.5t-119 166.5q0 120 155 164l107 -53
q-19 -56 -19 -111q0 -172 273 -172q166 0 257 60t91 159q0 82 -57 115t-213 33h-215q-151 0 -217 50t-66 126q0 74 47 128t162 132q-109 37 -161 111.5t-52 195.5q0 151 107.5 247.5t320.5 96.5q109 0 199 -37q-8 127 54.5 214.5t178.5 87.5q70 0 117 -40t47 -110
q0 -55 -33 -92t-88 -37q-40 0 -70.5 21t-40.5 47l45 55q0 53 -51 53q-44 0 -75.5 -54.5t-24.5 -172.5q147 -92 147 -268zM383 649q0 -116 13.5 -178t37 -83t66.5 -21q40 0 62 19t35 82t13 183q0 124 -12.5 189t-34 85.5t-61.5 20.5q-42 0 -65.5 -20.5t-38.5 -87t-15 -189.5z
" />
    <glyph glyph-name="h" unicode="h" horiz-adv-x="1263" 
d="M33 1536h456v-739q81 198 318 198q315 0 315 -342v-600h125v-53h-561v53h102v635q0 123 -21.5 166t-68.5 43q-87 0 -148 -89t-61 -216v-539h105v-53h-561v53h123v1430h-123v53z" />
    <glyph glyph-name="i" unicode="i" horiz-adv-x="636" 
d="M119 1309q0 74 46.5 123t141.5 49q86 0 134 -43.5t48 -128.5q0 -78 -46 -126t-140 -48q-100 0 -142 51t-42 123zM25 975h462v-922h125v-53h-581v53h123v869h-129v53z" />
    <glyph glyph-name="j" unicode="j" horiz-adv-x="620" 
d="M485 975v-825q0 -662 -460 -662q-80 0 -137.5 20t-87.5 53.5t-43 69.5t-13 76q0 83 49.5 128.5t122.5 45.5q70 0 106.5 -39t36.5 -104q0 -44 -12 -84h-59q-19 -32 -19 -60q0 -55 68 -55q71 0 93 68.5t22 277.5v1037h-170v53h503zM109 1307q0 75 46.5 124.5t141.5 49.5
q86 0 134 -43.5t48 -128.5q0 -78 -46 -126t-140 -48q-52 0 -89.5 15.5t-57 41.5t-28.5 54.5t-9 60.5z" />
    <glyph glyph-name="k" unicode="k" horiz-adv-x="1245" 
d="M688 0v53h103l-244 453l-58 -12v-441h105v-53h-561v53h123v1430h-129v53h462v-983l41 10l418 359h-164v53h406v-53h-148l-251 -220l358 -649h86v-53h-547z" />
    <glyph glyph-name="l" unicode="l" horiz-adv-x="636" 
d="M23 1536h462v-1483h125v-53h-581v53h123v1430h-129v53z" />
    <glyph glyph-name="m" unicode="m" horiz-adv-x="1828" 
d="M33 975h456v-182q15 42 36.5 74.5t55.5 63t87 47.5t120 17q236 0 287 -217q16 42 40 77.5t61 68.5t91.5 52t121.5 19q299 0 299 -342v-600h124v-53h-550v53h92v641q0 120 -19 160.5t-65 40.5q-73 0 -128 -84.5t-55 -212.5v-545h97v-53h-522v53h92v639q0 84 -9 128.5
t-26 59.5t-47 15q-73 0 -128 -90t-55 -217v-535h95v-53h-551v53h123v869h-123v53z" />
    <glyph glyph-name="n" unicode="n" horiz-adv-x="1263" 
d="M33 975h456v-180q18 43 41 75t59.5 62.5t92 46.5t127.5 16q313 0 313 -342v-600h125v-53h-561v53h102v629q0 122 -21.5 163.5t-76.5 41.5q-79 0 -140 -90t-61 -217v-527h105v-53h-561v53h123v869h-123v53z" />
    <glyph glyph-name="o" unicode="o" horiz-adv-x="1105" 
d="M717 496q0 95 -3.5 160.5t-13.5 124t-27.5 92.5t-46 53.5t-69.5 19.5q-53 0 -86.5 -27.5t-51 -90.5t-23 -139.5t-5.5 -201.5q0 -124 5.5 -200.5t23 -139.5t51 -90.5t86.5 -27.5q99 0 129.5 99t30.5 368zM41 483q0 249 135.5 380.5t386.5 131.5q502 0 502 -495
q0 -253 -128 -386.5t-384 -133.5q-251 0 -381.5 130.5t-130.5 372.5z" />
    <glyph glyph-name="p" unicode="p" horiz-adv-x="1191" 
d="M664 901q-74 0 -131.5 -80.5t-57.5 -206.5v-335q0 -93 45 -161.5t125 -68.5q88 0 119 95t31 343q0 168 -12 255.5t-39 123t-80 35.5zM473 975v-156q91 176 295 176q179 0 277 -127.5t98 -378.5q0 -509 -420 -509q-100 0 -156 26t-90 80v-520h264v-53h-727v53h129v1356
h-123v53h453z" />
    <glyph glyph-name="q" unicode="q" horiz-adv-x="1200" 
d="M526 74q79 0 135 77.5t56 200.5v338q0 99 -46.5 167.5t-121.5 68.5q-84 0 -117 -97t-33 -340q0 -168 11.5 -256t38 -123.5t77.5 -35.5zM715 -434v586q-41 -83 -109.5 -127.5t-179.5 -44.5q-180 0 -278.5 127.5t-98.5 379.5q0 508 426 508q182 0 252 -131l10 111h432v-53
h-118v-1356h108v-53h-655v53h211z" />
    <glyph glyph-name="r" unicode="r" horiz-adv-x="983" 
d="M688 909q-78 0 -138.5 -105t-60.5 -241v-510h164v-53h-620v53h123v869h-123v53h456v-187q31 104 102.5 155.5t166.5 51.5t154 -60t59 -165q0 -87 -42 -134.5t-116 -47.5q-71 0 -113.5 39t-42.5 123q0 26 7 61h63q12 28 12 51q0 47 -51 47z" />
    <glyph glyph-name="s" unicode="s" horiz-adv-x="876" 
d="M70 -20v360h45q44 -162 129 -229.5t217 -67.5q108 0 159.5 36.5t51.5 96.5q0 29 -12.5 51t-26.5 35.5t-53 28.5t-60.5 21t-80.5 21q-4 1 -6.5 1.5t-6 1.5t-6.5 2q-61 15 -100.5 27.5t-91 38.5t-81.5 57t-51.5 82t-21.5 116q0 150 97.5 243t258.5 93q106 0 205 -47
q40 -16 57 -16q20 0 30.5 15t16.5 52h41v-311h-43q-47 128 -121 189t-180 61q-94 0 -143 -31.5t-49 -87.5q0 -27 12.5 -48.5t30 -35t51.5 -27t59.5 -20.5t72.5 -19q6 -1 9.5 -2t9 -2.5t9.5 -2.5q42 -11 70.5 -19.5t67.5 -23.5t65 -31.5t54.5 -42.5t45.5 -57t28 -73.5
t11 -92.5q0 -164 -100.5 -253t-276.5 -89q-133 0 -252 61q-24 16 -37 16q-19 0 -32.5 -16.5t-28.5 -60.5h-43z" />
    <glyph glyph-name="t" unicode="t" horiz-adv-x="792" 
d="M125 274v648h-123v53h123v264l336 84v-348h270v-53h-270v-670q0 -93 21.5 -135.5t78.5 -42.5q68 0 111 57t57 162l49 -6q-7 -66 -25 -116.5t-53 -96t-97.5 -70t-149.5 -24.5q-76 0 -132 13t-102.5 45t-70 91t-23.5 145z" />
    <glyph glyph-name="u" unicode="u" horiz-adv-x="1239" 
d="M1212 0h-432l-18 154q-18 -38 -40.5 -66.5t-57.5 -54.5t-87.5 -39.5t-119.5 -13.5q-316 0 -316 342v600h-125v53h459v-688q0 -121 22 -165t78 -44q75 0 128 74.5t53 189.5v580h-111v53h445v-922h122v-53z" />
    <glyph glyph-name="v" unicode="v" horiz-adv-x="1071" 
d="M0 922v53h580v-53h-134l240 -652l219 652h-129v53h295v-53h-90l-315 -922h-197l-377 922h-92z" />
    <glyph glyph-name="w" unicode="w" horiz-adv-x="1671" 
d="M684 922v53h508v-53h-92l198 -662l191 662h-141v53h292v-53h-94l-264 -922h-215l-209 639l-221 -639h-209l-322 922h-96v53h553v-53h-100l201 -666l163 477l-53 189h-90z" />
    <glyph glyph-name="x" unicode="x" horiz-adv-x="1183" 
d="M680 612l240 310h-134v53h316v-53h-103l-280 -365l346 -504h119v-53h-641v53h141l-221 334l-254 -334h135v-53h-334v53h119l293 393l-318 476h-112v53h631v-53h-140z" />
    <glyph glyph-name="y" unicode="y" horiz-adv-x="1087" 
d="M12 922v53h563v-53h-120l227 -662l233 662h-131v53h303v-53h-100l-391 -1088q-72 -202 -139 -274t-191 -72q-113 0 -175 53.5t-62 143.5q0 76 42.5 120.5t110.5 44.5q72 0 113 -33t41 -98q0 -29 -12 -73h-72q-14 -25 -14 -49q0 -48 69 -48q73 0 121 73.5t109 250.5
l43 127h-123l-355 922h-90z" />
    <glyph glyph-name="z" unicode="z" horiz-adv-x="1013" 
d="M954 975v-49l-508 -873h93q160 0 241 78t133 268h43l-30 -399h-852v43l520 879h-82q-98 0 -154.5 -10.5t-101 -47t-71 -95t-56.5 -165.5h-41l25 371h841z" />
    <glyph glyph-name="braceleft" unicode="{" horiz-adv-x="747" 
d="M63 684q38 1 68 10t60.5 32.5t47.5 72.5t17 121q0 83 -29.5 228.5t-29.5 192.5q0 271 346 271q98 0 172 -27l-15 -45q-44 14 -84 14q-47 0 -75.5 -25t-28.5 -97q0 -61 28.5 -242.5t28.5 -251.5q0 -140 -74 -197t-241 -71v-2q80 -9 135 -26t97.5 -48t62.5 -81.5t20 -123.5
q0 -67 -28.5 -261t-28.5 -249q0 -73 31.5 -101t85.5 -28q41 0 90 17l16 -46q-77 -32 -166 -32q-372 0 -372 284q0 40 29.5 198.5t29.5 238.5q0 231 -193 235v39z" />
    <glyph glyph-name="bar" unicode="|" horiz-adv-x="669" 
d="M287 -260v1888h80v-1888h-80z" />
    <glyph glyph-name="braceright" unicode="}" horiz-adv-x="747" 
d="M682 682v-39q-193 -4 -193 -235q0 -80 30 -238.5t30 -198.5q0 -284 -373 -284q-89 0 -166 32l17 45q46 -16 90 -16q54 0 85 28t31 101q0 55 -28.5 249t-28.5 261q0 73 20.5 123.5t63 81.5t97.5 48t135 26v2q-168 14 -242 71t-74 197q0 70 28.5 251.5t28.5 242.5
q0 72 -28.5 97t-75.5 25q-40 0 -84 -14l-14 45q74 27 172 27q346 0 346 -271q0 -47 -30 -192.5t-30 -228.5q0 -72 17 -121t47.5 -72.5t60.5 -32.5t68 -10z" />
    <glyph glyph-name="asciitilde" unicode="~" horiz-adv-x="1052" 
d="M754 516q-91 0 -275 47q-144 37 -207 37q-90 0 -137 -90l-35 12q16 65 34.5 113.5t46.5 91.5t68 65.5t91 22.5q67 0 248 -43q173 -39 237 -39q42 0 68 19t53 71l37 -10q-32 -120 -66.5 -185.5t-71.5 -88.5t-91 -23z" />
    <glyph glyph-name="uni00A0" unicode="&#xa0;" horiz-adv-x="409" 
 />
    <glyph glyph-name="exclamdown" unicode="&#xa1;" horiz-adv-x="772" 
d="M354 428v182h64v-180q0 -117 19.5 -235t43 -197t43 -168t19.5 -154q0 -83 -40.5 -120t-105.5 -37q-67 0 -111 37.5t-44 119.5q0 60 17.5 148t38.5 168.5t38.5 200t17.5 235.5zM236 848q0 63 35.5 105t113.5 42q69 0 108 -41t39 -110q0 -72 -40.5 -109t-108.5 -37
q-69 0 -108 43t-39 107z" />
    <glyph glyph-name="cent" unicode="&#xa2;" horiz-adv-x="1034" 
d="M616 1030q-101 0 -145.5 -88t-44.5 -317q0 -149 22 -231.5t67 -116t126 -33.5q58 0 103.5 20.5t74.5 56.5t46.5 72.5t27.5 79.5l57 -12q-9 -37 -19 -65t-29 -65.5t-48 -65t-69 -52.5t-100 -38t-134 -13q-24 0 -70 4l-53 -232l-63 17l51 223q-153 32 -234.5 143t-81.5 291
q0 229 133.5 351t368.5 122h14l52 219l63 -14l-49 -211q128 -17 196 -81t68 -158q0 -83 -37.5 -124.5t-105.5 -41.5q-69 0 -105 37t-36 108q0 33 8 66h61q10 29 10 61q0 41 -36 64.5t-89 23.5z" />
    <glyph glyph-name="sterling" unicode="&#xa3;" horiz-adv-x="1196" 
d="M74 604v64h170q-68 131 -89 195q-26 82 -26 163q0 202 141.5 316t378.5 114q206 0 316 -86.5t110 -220.5q0 -80 -43.5 -131t-126.5 -51q-72 0 -119 40.5t-47 108.5q0 46 15 86h59q10 33 10 55q0 55 -36.5 97.5t-118.5 42.5q-47 0 -80.5 -15t-53.5 -40t-31 -68.5
t-14.5 -90.5t-3.5 -116v-399h377v-64h-377v-72q0 -98 -37.5 -166.5t-125.5 -162.5l4 -8q165 112 270 112q48 0 105 -21t100 -45.5t88 -45.5t72 -21q44 0 66.5 40.5t31.5 147.5l57 -2q-7 -189 -79 -294t-181 -105q-57 0 -103 12.5t-108 42.5l-311 144q-16 -94 -64.5 -138.5
t-115.5 -44.5q-50 0 -73.5 25t-23.5 59q0 61 60 105.5t153 48.5q47 90 47 201q0 77 -47 188h-196z" />
    <glyph glyph-name="currency" unicode="&#xa4;" horiz-adv-x="1085" 
d="M203 696q0 108 59 197l-158 182l39 37l185 -145q92 63 213 63q124 0 200 -61l185 141l35 -33l-154 -174q57 -85 57 -201q0 -110 -61 -204l153 -201l-36 -35l-193 158q-75 -60 -192 -60q-123 0 -203 56l-182 -152l-37 37l147 182q-57 83 -57 213zM283 696
q0 -122 60.5 -197t193.5 -75q118 0 182.5 77.5t64.5 194.5q0 124 -63 199.5t-189 75.5q-123 0 -186 -78.5t-63 -196.5z" />
    <glyph glyph-name="yen" unicode="&#xa5;" horiz-adv-x="1247" 
d="M752 811l280 569h-186v54h405v-54h-143l-297 -602h254v-65h-268v-144h268v-65h-268v-445h137v-59h-627v59h137v445h-258v65h258v144h-258v65h228l-310 602h-114v54h631v-54h-138z" />
    <glyph glyph-name="brokenbar" unicode="&#xa6;" horiz-adv-x="669" 
d="M285 844v784h80v-784h-80zM285 -260v895h80v-895h-80z" />
    <glyph glyph-name="section" unicode="&#xa7;" horiz-adv-x="1400" 
d="M137 854q0 145 50.5 261.5t135.5 189.5t193 112t227 39q196 0 304 -73.5t108 -204.5q0 -75 -43.5 -126t-126.5 -51q-72 0 -119 41t-47 107q0 43 15 80l71 16q10 33 10 66q0 100 -163 100q-73 0 -125.5 -27t-83.5 -80t-46.5 -119t-21.5 -155q136 -28 244.5 -65
t206.5 -93.5t163.5 -128.5t103.5 -172.5t38 -222.5q0 -146 -50.5 -264t-135.5 -192t-193 -113t-227 -39q-196 0 -304 73.5t-108 204.5q0 74 44 126.5t126 52.5q73 0 119.5 -41.5t46.5 -108.5q0 -40 -14 -80l-72 -16q-12 -35 -12 -68q0 -98 163 -98q73 0 126 28t84.5 82
t48 122.5t22.5 160.5q-137 28 -245.5 63.5t-207 91.5t-164 127t-103.5 171t-38 223zM899 326q0 264 -100 418t-328 233v-98q0 -261 99 -416t327 -232q2 31 2 95z" />
    <glyph glyph-name="dieresis" unicode="&#xa8;" horiz-adv-x="1024" 
d="M598 1296q0 59 37 99.5t102 40.5t104.5 -35.5t39.5 -104.5q0 -65 -37.5 -104t-104.5 -39q-73 0 -107 41.5t-34 101.5zM201 1296q0 59 37.5 99.5t103.5 40.5q65 0 104 -35.5t39 -104.5q0 -65 -37 -104t-104 -39q-74 0 -108.5 41.5t-34.5 101.5z" />
    <glyph glyph-name="copyright" unicode="&#xa9;" horiz-adv-x="1599" 
d="M1477 655q0 -207 -86 -361.5t-239 -235.5t-353 -81q-165 0 -294.5 48.5t-212.5 135.5t-126 205t-43 261q0 155 53 283.5t145.5 214t216.5 132t265 46.5q312 0 493 -176t181 -472zM846 1016q-59 0 -91.5 -30.5t-48.5 -110t-16 -224.5q0 -203 34.5 -283.5t121.5 -80.5
q75 0 133 62.5t88 156.5h25l-9 -244h-20q-1 3 -4 8.5t-5 8.5t-5 7t-6.5 5.5t-8.5 1.5q-1 0 -73 -21.5t-134 -21.5q-183 0 -290 99t-107 302q0 190 112 296t294 106q54 0 121 -20.5t71 -20.5q5 0 8.5 1.5t6.5 5.5t5 6.5t5 8.5l4 8h18l6 -243h-28q-29 98 -86.5 157.5
t-120.5 59.5zM1403 643q0 142 -45 256t-125.5 188.5t-190 114t-239.5 39.5q-128 0 -238 -42t-191 -119t-127 -193.5t-46 -257.5q0 -274 159.5 -431t438.5 -157q277 0 440.5 162t163.5 440z" />
    <glyph glyph-name="ordfeminine" unicode="&#xaa;" horiz-adv-x="894" 
d="M397 975h74v96q0 123 -20 164t-80 41q-42 0 -65.5 -19t-10.5 -55h39q12 -27 12 -61q0 -49 -34.5 -78t-88.5 -29q-119 0 -119 113q0 88 80 132t228 44q174 0 247.5 -59.5t73.5 -214.5v-283q0 -42 11 -56t34 -14q22 0 33.5 29t17.5 100l41 -4q-6 -122 -53 -170.5
t-145 -48.5q-86 0 -131.5 25t-57.5 78q-49 -103 -202 -103q-41 0 -77 8t-70 26t-53.5 54t-19.5 86q0 109 83.5 154t252.5 45zM383 676q35 0 61.5 35t26.5 100v117h-22q-65 0 -92 -33.5t-27 -110.5q0 -68 11 -88t42 -20z" />
    <glyph glyph-name="guillemotleft" unicode="&#xab;" horiz-adv-x="1003" 
d="M483 535l355 290l28 -20l-190 -332l186 -356l-26 -21l-318 275q-59 47 -59 88q0 38 24 76zM123 535l354 290l29 -20l-191 -332l187 -356l-27 -21l-317 275q-60 48 -60 88q0 36 25 76z" />
    <glyph glyph-name="logicalnot" unicode="&#xac;" horiz-adv-x="1228" 
d="M1001 336v274h-851v74h929v-348h-78z" />
    <glyph glyph-name="uni00AD" unicode="&#xad;" horiz-adv-x="692" 
d="M94 512v119h504v-119h-504z" />
    <glyph glyph-name="registered" unicode="&#xae;" horiz-adv-x="940" 
d="M858 983q0 -171 -108.5 -278t-280.5 -107q-186 0 -286.5 103t-100.5 268q0 175 111.5 281t277.5 106q178 0 282.5 -101.5t104.5 -271.5zM459 987h-10v-172h26v-22h-196v22h45v348h-45v23h194q80 0 120 -18.5t40 -73.5q0 -48 -33 -70t-96 -27v-2q74 -4 101.5 -25t27.5 -71
v-43q0 -19 3.5 -26t16.5 -7q23 0 33 64l21 -2q-5 -49 -27 -74t-76 -25q-49 0 -71.5 18t-22.5 56v62q0 35 -10.5 50t-40.5 15zM449 1163v-155h6q39 0 53 19.5t14 62.5q0 39 -12.5 56t-50.5 17h-10zM797 977q0 153 -92 240.5t-234 87.5q-145 0 -235.5 -90.5t-90.5 -243.5
q0 -149 85.5 -234.5t240.5 -85.5q149 0 237.5 88.5t88.5 237.5z" />
    <glyph glyph-name="macron" unicode="&#xaf;" horiz-adv-x="1024" 
d="M233 1190v172h558v-172h-558z" />
    <glyph glyph-name="degree" unicode="&#xb0;" horiz-adv-x="569" 
d="M150 1290q0 -68 34 -107.5t103 -39.5q64 0 98.5 40t34.5 107q0 69 -35.5 107.5t-101.5 38.5q-64 0 -98.5 -40t-34.5 -106zM70 1290q0 88 58 147.5t161 59.5q101 0 156 -55t55 -148q0 -92 -57 -152.5t-158 -60.5q-106 0 -160.5 57.5t-54.5 151.5z" />
    <glyph glyph-name="plusminus" unicode="&#xb1;" 
d="M1028 612h-432v-383h-82v383h-416v74h416v358h82v-358h432v-74zM1028 0h-930v74h930v-74z" />
    <glyph glyph-name="twosuperior" unicode="&#xb2;" horiz-adv-x="722" 
d="M47 807v164l119 88q134 99 194 195t60 231q0 73 -26 106t-91 33q-92 0 -92 -53q0 -15 8 -47h41q10 -20 10 -54q0 -46 -30 -74t-82 -28q-59 0 -90 34.5t-31 84.5q0 81 74.5 137.5t228.5 56.5q322 0 322 -213q0 -55 -19 -99t-77 -99.5t-144 -116t-240 -158.5h279
q83 0 117 39t49 121h53l-12 -348h-621z" />
    <glyph glyph-name="threesuperior" unicode="&#xb3;" horiz-adv-x="733" 
d="M342 1681q161 0 234 -51t73 -147q0 -80 -66.5 -134t-181.5 -75q145 -12 219 -70.5t74 -152.5q0 -116 -102.5 -186t-276.5 -70q-52 0 -99 8.5t-92 29t-72 61.5t-27 99q0 49 29.5 84t88.5 35q51 0 79 -27t28 -69q0 -38 -10 -55h-39q-11 -18 -11 -39q0 -28 28 -48t79 -20
q78 0 109.5 47.5t31.5 145.5q0 82 -27 126.5t-75 69.5q-45 -9 -111 -14l-8 55q63 10 94.5 19t57 30t33.5 55.5t8 94.5q0 141 -107 141q-50 0 -74 -16t-24 -43q0 -16 8 -52h41q8 -19 8 -51q0 -38 -31 -65t-75 -27q-60 0 -89.5 31t-29.5 86q0 82 76.5 138t228.5 56z" />
    <glyph glyph-name="acute" unicode="&#xb4;" horiz-adv-x="1024" 
d="M340 1116l139 383l96 25q45 11 83 -14.5t38 -73.5q0 -56 -55 -111l-270 -227z" />
    <glyph glyph-name="mu" unicode="&#xb5;" horiz-adv-x="1382" 
d="M549 1026v-676v-9q0 -43 0.5 -64t2.5 -54t7 -49.5t14 -34.5t23.5 -25.5t34.5 -7.5q61 0 110.5 80t49.5 211v611l362 18v-831q0 -50 14.5 -69.5t44.5 -19.5q72 0 82 191l47 -2q-7 -177 -71.5 -246t-194.5 -69q-124 0 -194 55t-90 147q-32 -90 -100 -147.5t-156 -57.5
q-27 0 -49 3t-48.5 13.5t-49 29t-47.5 51.5t-46 78l-8 -7l119 -290q7 -18 20.5 -50.5t19 -45.5t13.5 -35.5t11.5 -34.5t6 -27t2.5 -27q0 -45 -41.5 -74t-87.5 -18l-186 39v1426z" />
    <glyph glyph-name="paragraph" unicode="&#xb6;" horiz-adv-x="1282" 
d="M745 16v406h-36q-268 0 -417 126t-149 367q0 237 156 378t436 141h465v-60h-115v-1216q0 -254 -125 -370t-397 -116q-78 0 -139.5 18t-99 45.5t-62 64.5t-34 73t-9.5 72q0 89 51.5 139.5t128.5 50.5q74 0 115 -41t41 -110q0 -39 -14 -90h-78q-25 -45 -25 -78
q0 -76 125 -76q94 0 138 62t44 214zM825 1374v-1380q0 -175 -84 -250q64 15 112.5 46t77.5 70.5t46.5 92.5t24 106t6.5 117v1198h-183z" />
    <glyph glyph-name="periodcentered" unicode="&#xb7;" horiz-adv-x="595" 
d="M137 655q0 75 45 123.5t125 48.5q79 0 126.5 -41t47.5 -124q0 -79 -44.5 -127t-125.5 -48q-90 0 -132 50t-42 118z" />
    <glyph glyph-name="cedilla" unicode="&#xb8;" horiz-adv-x="1024" 
d="M500 27h55l-82 -140q49 7 62 7q93 0 141.5 -48t48.5 -129q0 -80 -62.5 -140t-187.5 -60q-85 0 -136.5 35.5t-51.5 91.5q0 37 20.5 57t52.5 20q62 0 82 -65l-49 -39q0 -28 17.5 -48t54.5 -20q41 0 60.5 33t19.5 115q0 84 -14 120t-60 36q-23 0 -61 -9l-7 21z" />
    <glyph glyph-name="onesuperior" unicode="&#xb9;" horiz-adv-x="587" 
d="M172 1606l-133 -19l-8 53l299 41h104v-821h94v-53h-489v53h133v746z" />
    <glyph glyph-name="ordmasculine" unicode="&#xba;" horiz-adv-x="927" 
d="M580 969q0 87 -3.5 137t-15 92.5t-34 60t-60.5 17.5q-27 0 -46.5 -7.5t-32.5 -26.5t-21 -41.5t-12 -61.5t-5.5 -77.5t-1.5 -98.5q0 -59 1.5 -97.5t5.5 -77.5t12 -61.5t21 -41.5t32.5 -26.5t46.5 -7.5q73 0 93 62.5t20 255.5zM72 961q0 175 105.5 268.5t293.5 93.5
q385 0 385 -352q0 -179 -100 -274t-293 -95q-188 0 -289.5 94t-101.5 265z" />
    <glyph glyph-name="guillemotright" unicode="&#xbb;" horiz-adv-x="1003" 
d="M881 387l-355 -291l-26 21l188 332l-186 354l26 22l318 -274q59 -50 59 -88t-24 -76zM520 387l-354 -291l-27 21l189 332l-187 354l27 22l317 -274q32 -27 46 -46.5t14 -41.5q0 -36 -25 -76z" />
    <glyph glyph-name="onequarter" unicode="&#xbc;" horiz-adv-x="1843" 
d="M281 1360l-134 -19l-8 54l299 41h105v-822h94v-53h-490v53h134v746zM385 -20l889 1476h86l-887 -1476h-88zM1165 0v53h123v154h-344v47l344 606h256v-594h105v80h55v-217h-55v78h-105v-154h88v-53h-467zM1018 266h270v479z" />
    <glyph glyph-name="onehalf" unicode="&#xbd;" horiz-adv-x="1843" 
d="M283 1360l-133 -19l-9 54l299 41h105v-822h94v-53h-489v53h133v746zM385 -20l889 1476h86l-887 -1476h-88zM1069 0v164l119 88q134 99 194 195t60 231q0 73 -26 106t-91 33q-92 0 -92 -53q0 -15 8 -47h41q10 -20 10 -53q0 -46 -30 -74.5t-82 -28.5q-59 0 -90 34.5
t-31 84.5q0 81 74.5 137.5t228.5 56.5q321 0 321 -212q0 -55 -19 -99t-76.5 -100t-144 -117t-239.5 -158h279q83 0 117 39t49 121h53l-12 -348h-621z" />
    <glyph glyph-name="threequarters" unicode="&#xbe;" horiz-adv-x="1843" 
d="M422 1436q307 0 307 -199q0 -80 -66.5 -134t-181.5 -75q145 -12 219 -70.5t74 -152.5q0 -116 -102.5 -186t-276.5 -70q-52 0 -99 9t-92.5 29.5t-72.5 61.5t-27 99q0 49 30 83.5t89 34.5q51 0 79 -27t28 -69q0 -36 -11 -55h-38q-11 -18 -11 -39q0 -28 28 -48t79 -20
q78 0 109.5 47.5t31.5 145.5q0 82 -27 126.5t-75 69.5q-45 -9 -111 -14l-8 55q63 10 94.5 19t56.5 30t33 55.5t8 94.5q0 141 -106 141q-50 0 -74 -16t-24 -43q0 -15 8 -51h41q8 -19 8 -51q0 -38 -31 -65.5t-75 -27.5q-60 0 -89.5 31t-29.5 86q0 82 77 138.5t228 56.5z
M440 -20l889 1476h86l-887 -1476h-88zM1198 0v53h123v154h-344v47l344 606h256v-594h104v80h56v-217h-56v78h-104v-154h88v-53h-467zM1051 266h270v479z" />
    <glyph glyph-name="questiondown" unicode="&#xbf;" horiz-adv-x="1155" 
d="M596 -481q-213 0 -331 88t-118 248q0 99 50 181t139 163l301 272v150h51v-426q0 -36 -22 -58l-134 -137q-60 -60 -82 -111.5t-22 -128.5q0 -92 52 -142t147 -50q88 0 129 40.5t41 94.5q0 18 -11 51h-53q-16 43 -16 90q0 67 46.5 108.5t117.5 41.5q80 0 121.5 -50
t41.5 -126q0 -128 -118 -213.5t-330 -85.5zM813 848q0 -64 -39.5 -107t-107.5 -43t-110 37t-42 109q0 69 39.5 110t108.5 41q80 0 115.5 -42t35.5 -105z" />
    <glyph glyph-name="Agrave" unicode="&#xc0;" horiz-adv-x="1406" 
d="M905 59l-143 418h-416l-151 -418h153v-59h-340v59h107l514 1375h151l506 -1375h111v-59h-641v59h149zM563 1069l-196 -532h376zM625 1853l266 -325l-25 -27l-327 135q-90 37 -90 107q0 85 96 100z" />
    <glyph glyph-name="Aacute" unicode="&#xc1;" horiz-adv-x="1406" 
d="M905 59l-143 418h-416l-151 -418h153v-59h-340v59h107l514 1375h151l506 -1375h111v-59h-641v59h149zM563 1069l-196 -532h376zM535 1528l266 325l80 -10q96 -15 96 -100q0 -70 -90 -107l-328 -135z" />
    <glyph glyph-name="Acircumflex" unicode="&#xc2;" horiz-adv-x="1406" 
d="M905 59l-143 418h-416l-151 -418h153v-59h-340v59h107l514 1375h151l506 -1375h111v-59h-641v59h149zM563 1069l-196 -532h376zM383 1526l219 278q60 33 113 33t84.5 -20t58.5 -62l154 -231l-21 -23l-291 139l-299 -139z" />
    <glyph glyph-name="Atilde" unicode="&#xc3;" horiz-adv-x="1406" 
d="M905 59l-143 418h-416l-151 -418h153v-59h-340v59h107l514 1375h151l506 -1375h111v-59h-641v59h149zM563 1069l-196 -532h376zM846 1569q-75 0 -191 49q-83 33 -123 33q-72 0 -108 -86l-39 12q37 134 86 197t141 63q11 0 23.5 -1.5t21 -2.5t23.5 -5.5t21 -6.5t23.5 -8.5
t21 -8t23.5 -9.5t22 -9q83 -31 116 -31q40 0 67.5 16.5t45.5 69.5l41 -10q-34 -143 -86.5 -202.5t-128.5 -59.5z" />
    <glyph glyph-name="Adieresis" unicode="&#xc4;" horiz-adv-x="1406" 
d="M905 59l-143 418h-416l-151 -418h153v-59h-340v59h107l514 1375h151l506 -1375h111v-59h-641v59h149zM563 1069l-196 -532h376zM766 1669q0 58 37 98.5t102 40.5t104.5 -35t39.5 -104q0 -65 -37.5 -104t-104.5 -39q-73 0 -107 41.5t-34 101.5zM358 1669q0 58 38 98.5
t104 40.5q65 0 104 -35t39 -104q0 -65 -37 -104t-104 -39q-74 0 -109 42t-35 101z" />
    <glyph glyph-name="Aring" unicode="&#xc5;" horiz-adv-x="1406" 
d="M905 59l-143 418h-416l-151 -418h153v-59h-340v59h107l514 1375h151l506 -1375h111v-59h-641v59h149zM563 1069l-196 -532h376zM592 1661q0 -49 28 -83t85 -34q53 0 80.5 33t27.5 84q0 49 -29.5 83t-83.5 34q-51 0 -79.5 -34.5t-28.5 -82.5zM516 1661q0 76 49.5 126
t141.5 50q88 0 135 -47t47 -125q0 -82 -49 -132t-138 -50q-94 0 -140 48t-46 130z" />
    <glyph glyph-name="AE" unicode="&#xc6;" horiz-adv-x="2015" 
d="M633 1434h1231l20 -400h-47q-63 196 -161 268t-287 72h-111v-626h80q100 0 157.5 66.5t83.5 195.5h48v-607h-52q-32 156 -89 217.5t-169 61.5h-59v-623h113q198 0 319.5 99.5t163.5 281.5h45l-16 -440h-1108v59h131v619h-410l-321 -619h153v-59h-340v59h107l678 1315
h-160v60zM926 1374h-54l-325 -631h379v631z" />
    <glyph glyph-name="Ccedilla" unicode="&#xc7;" horiz-adv-x="1392" 
d="M803 1399q-70 0 -123 -21t-96.5 -69t-71 -126t-42.5 -193.5t-15 -268.5q0 -347 89 -515.5t271 -168.5q133 0 236.5 107t175.5 309h43l-15 -451h-30q-15 41 -51 41q-25 0 -80.5 -15.5t-139.5 -31t-176 -16.5l-53 -93q49 7 61 7q93 0 142 -48t49 -129q0 -80 -62.5 -140
t-187.5 -60q-85 0 -136.5 35.5t-51.5 91.5q0 37 20.5 57t52.5 20q62 0 82 -65l-49 -39q0 -28 17.5 -48t54.5 -20q41 0 60.5 33t19.5 115q0 84 -14 120t-60 36q-23 0 -61 -9l-7 21l68 117q-305 12 -472 192t-167 531q0 181 51 324.5t144 236.5t220 141.5t281 48.5
q87 0 166 -16t132 -31.5t79 -15.5q23 0 31.5 9t15.5 32h33l16 -439h-45q-144 404 -405 404z" />
    <glyph glyph-name="Egrave" unicode="&#xc8;" horiz-adv-x="1273" 
d="M53 1434h1069l21 -400h-47q-63 196 -161 268t-288 72h-110v-612h79q100 0 158 66.5t84 195.5h47v-606h-51q-32 155 -89 216.5t-169 61.5h-59v-637h112q198 0 320 99.5t164 281.5h45l-17 -440h-1108v59h131v1315h-131v60zM549 1853l266 -325l-24 -27l-328 135
q-90 37 -90 107q0 85 96 100z" />
    <glyph glyph-name="Eacute" unicode="&#xc9;" horiz-adv-x="1273" 
d="M53 1434h1069l21 -400h-47q-63 196 -161 268t-288 72h-110v-612h79q100 0 158 66.5t84 195.5h47v-606h-51q-32 155 -89 216.5t-169 61.5h-59v-637h112q198 0 320 99.5t164 281.5h45l-17 -440h-1108v59h131v1315h-131v60zM459 1528l266 325l80 -10q96 -15 96 -100
q0 -70 -90 -107l-328 -135z" />
    <glyph glyph-name="Ecircumflex" unicode="&#xca;" horiz-adv-x="1273" 
d="M53 1434h1069l21 -400h-47q-63 196 -161 268t-288 72h-110v-612h79q100 0 158 66.5t84 195.5h47v-606h-51q-32 155 -89 216.5t-169 61.5h-59v-637h112q198 0 320 99.5t164 281.5h45l-17 -440h-1108v59h131v1315h-131v60zM307 1526l219 278q60 33 113 33t84.5 -20
t58.5 -62l154 -231l-21 -23l-290 139l-299 -139z" />
    <glyph glyph-name="Edieresis" unicode="&#xcb;" horiz-adv-x="1273" 
d="M53 1434h1069l21 -400h-47q-63 196 -161 268t-288 72h-110v-612h79q100 0 158 66.5t84 195.5h47v-606h-51q-32 155 -89 216.5t-169 61.5h-59v-637h112q198 0 320 99.5t164 281.5h45l-17 -440h-1108v59h131v1315h-131v60zM690 1669q0 58 37 98.5t102 40.5t104.5 -35
t39.5 -104q0 -65 -37.5 -104t-104.5 -39q-73 0 -107 41.5t-34 101.5zM283 1669q0 59 37.5 99t103.5 40q65 0 104 -35t39 -104q0 -65 -37 -104t-104 -39q-74 0 -108.5 41.5t-34.5 101.5z" />
    <glyph glyph-name="Igrave" unicode="&#xcc;" horiz-adv-x="720" 
d="M61 1434h598v-60h-122v-1315h122v-59h-598v59h123v1315h-123v60zM283 1853l266 -325l-25 -27l-327 135q-91 37 -91 107q0 85 97 100z" />
    <glyph glyph-name="Iacute" unicode="&#xcd;" horiz-adv-x="720" 
d="M61 1434h598v-60h-122v-1315h122v-59h-598v59h123v1315h-123v60zM180 1528l266 325l80 -10q97 -15 97 -100q0 -70 -91 -107l-327 -135z" />
    <glyph glyph-name="Icircumflex" unicode="&#xce;" horiz-adv-x="720" 
d="M61 1434h598v-60h-122v-1315h122v-59h-598v59h123v1315h-123v60zM41 1526l219 278q60 33 113 33t84.5 -20t58.5 -62l154 -231l-21 -23l-291 139l-299 -139z" />
    <glyph glyph-name="Idieresis" unicode="&#xcf;" horiz-adv-x="720" 
d="M61 1434h598v-60h-122v-1315h122v-59h-598v59h123v1315h-123v60zM424 1669q0 58 37 98.5t102 40.5t104.5 -35t39.5 -104q0 -65 -37.5 -104t-104.5 -39q-73 0 -107 41.5t-34 101.5zM16 1669q0 58 38 98.5t104 40.5q65 0 104 -35t39 -104q0 -65 -37 -104t-104 -39
q-74 0 -109 42t-35 101z" />
    <glyph glyph-name="Eth" unicode="&#xd0;" horiz-adv-x="1552" 
d="M61 729v59h160v592h-145v54h602q194 0 336.5 -37t245.5 -118t154.5 -215t51.5 -323q0 -142 -28 -255.5t-82.5 -194t-128 -137.5t-170 -90.5t-202.5 -48.5t-232 -15h-547v53h145v676h-160zM575 53h80q157 0 251 66.5t139 216.5t45 405q0 134 -11.5 233.5t-38 170
t-62 116.5t-90.5 72.5t-116.5 36.5t-146.5 10h-50v-592h306v-59h-306v-676z" />
    <glyph glyph-name="Ntilde" unicode="&#xd1;" horiz-adv-x="1417" 
d="M1235 1374v-1374h-242l-737 1325v-1266h123v-59h-318v59h123v1315h-123v60h539l563 -1031v971h-123v60h318v-60h-123zM854 1569q-74 0 -190 49q-83 33 -123 33q-73 0 -109 -86l-39 12q37 134 86.5 197t141.5 63q13 0 25 -1t27.5 -5t23 -6t27 -9t23.5 -8.5t27 -11
t25 -10.5q83 -31 116 -31q40 0 67.5 16.5t45.5 69.5l41 -10q-34 -143 -86.5 -202.5t-128.5 -59.5z" />
    <glyph glyph-name="Ograve" unicode="&#xd2;" horiz-adv-x="1513" 
d="M1055 717q0 110 -2.5 185t-9.5 151.5t-20 125.5t-34.5 93.5t-53 68.5t-75 38t-100.5 14q-58 0 -102.5 -14.5t-76.5 -39.5t-54.5 -70.5t-36 -96.5t-21 -129t-10 -156t-2.5 -189q0 -98 3 -170.5t10.5 -144.5t21.5 -121.5t37 -93.5t54.5 -70t75.5 -40.5t101 -14.5
q76 0 128.5 26.5t85 75t50.5 135t24.5 186.5t6.5 251zM84 698q0 353 181.5 555.5t508.5 202.5q319 0 487.5 -191.5t168.5 -541.5q0 -353 -170 -548t-508 -195q-330 0 -499 186t-169 532zM682 1853l266 -325l-24 -27l-328 135q-90 37 -90 107q0 85 96 100z" />
    <glyph glyph-name="Oacute" unicode="&#xd3;" horiz-adv-x="1513" 
d="M1055 717q0 110 -2.5 185t-9.5 151.5t-20 125.5t-34.5 93.5t-53 68.5t-75 38t-100.5 14q-58 0 -102.5 -14.5t-76.5 -39.5t-54.5 -70.5t-36 -96.5t-21 -129t-10 -156t-2.5 -189q0 -98 3 -170.5t10.5 -144.5t21.5 -121.5t37 -93.5t54.5 -70t75.5 -40.5t101 -14.5
q76 0 128.5 26.5t85 75t50.5 135t24.5 186.5t6.5 251zM84 698q0 353 181.5 555.5t508.5 202.5q319 0 487.5 -191.5t168.5 -541.5q0 -353 -170 -548t-508 -195q-330 0 -499 186t-169 532zM592 1528l266 325l80 -10q96 -15 96 -100q0 -70 -90 -107l-328 -135z" />
    <glyph glyph-name="Ocircumflex" unicode="&#xd4;" horiz-adv-x="1513" 
d="M1055 717q0 110 -2.5 185t-9.5 151.5t-20 125.5t-34.5 93.5t-53 68.5t-75 38t-100.5 14q-58 0 -102.5 -14.5t-76.5 -39.5t-54.5 -70.5t-36 -96.5t-21 -129t-10 -156t-2.5 -189q0 -98 3 -170.5t10.5 -144.5t21.5 -121.5t37 -93.5t54.5 -70t75.5 -40.5t101 -14.5
q76 0 128.5 26.5t85 75t50.5 135t24.5 186.5t6.5 251zM84 698q0 353 181.5 555.5t508.5 202.5q319 0 487.5 -191.5t168.5 -541.5q0 -353 -170 -548t-508 -195q-330 0 -499 186t-169 532zM440 1526l219 278q60 33 113 33t84.5 -20t58.5 -62l154 -231l-20 -23l-291 139
l-299 -139z" />
    <glyph glyph-name="Otilde" unicode="&#xd5;" horiz-adv-x="1513" 
d="M1055 717q0 110 -2.5 185t-9.5 151.5t-20 125.5t-34.5 93.5t-53 68.5t-75 38t-100.5 14q-58 0 -102.5 -14.5t-76.5 -39.5t-54.5 -70.5t-36 -96.5t-21 -129t-10 -156t-2.5 -189q0 -98 3 -170.5t10.5 -144.5t21.5 -121.5t37 -93.5t54.5 -70t75.5 -40.5t101 -14.5
q76 0 128.5 26.5t85 75t50.5 135t24.5 186.5t6.5 251zM84 698q0 353 181.5 555.5t508.5 202.5q319 0 487.5 -191.5t168.5 -541.5q0 -353 -170 -548t-508 -195q-330 0 -499 186t-169 532zM897 1569q-74 0 -190 49q-83 33 -123 33q-73 0 -109 -86l-39 12q37 134 86.5 197
t141.5 63q13 0 25 -1t27.5 -5t23 -6t27 -9t23.5 -8.5t27 -11t25 -10.5q83 -31 116 -31q40 0 67.5 16.5t45.5 69.5l41 -10q-34 -143 -86.5 -202.5t-128.5 -59.5z" />
    <glyph glyph-name="Odieresis" unicode="&#xd6;" horiz-adv-x="1513" 
d="M1055 717q0 110 -2.5 185t-9.5 151.5t-20 125.5t-34.5 93.5t-53 68.5t-75 38t-100.5 14q-58 0 -102.5 -14.5t-76.5 -39.5t-54.5 -70.5t-36 -96.5t-21 -129t-10 -156t-2.5 -189q0 -98 3 -170.5t10.5 -144.5t21.5 -121.5t37 -93.5t54.5 -70t75.5 -40.5t101 -14.5
q76 0 128.5 26.5t85 75t50.5 135t24.5 186.5t6.5 251zM84 698q0 353 181.5 555.5t508.5 202.5q319 0 487.5 -191.5t168.5 -541.5q0 -353 -170 -548t-508 -195q-330 0 -499 186t-169 532zM823 1669q0 58 37.5 98.5t102.5 40.5t104 -35t39 -104q0 -65 -37 -104t-104 -39
q-73 0 -107.5 41.5t-34.5 101.5zM416 1669q0 59 37.5 99t103.5 40q65 0 104 -35t39 -104q0 -65 -37 -104t-104 -39q-74 0 -108.5 41.5t-34.5 101.5z" />
    <glyph glyph-name="multiply" unicode="&#xd7;" 
d="M918 946l-306 -303l299 -301l-53 -49l-297 297l-301 -299l-51 51l299 301l-299 303l51 53l301 -303l303 303z" />
    <glyph glyph-name="Oslash" unicode="&#xd8;" horiz-adv-x="1513" 
d="M420 -154l59 174q-196 67 -295.5 240t-99.5 438q0 353 181.5 555.5t508.5 202.5q92 0 187 -20l55 166l76 -23l-56 -164q193 -69 293.5 -246.5t100.5 -445.5q0 -353 -170 -548t-508 -195q-113 0 -197 20l-61 -178zM457 698q0 -202 15 -328t56 -204l402 1177
q-65 50 -170 50q-58 0 -102.5 -14.5t-76.5 -39.5t-54.5 -70.5t-36 -96.5t-21 -129t-10 -156t-2.5 -189zM1055 717q0 223 -13.5 352t-54.5 205l-399 -1180q63 -51 172 -51q76 0 128.5 26.5t85 75t50.5 135t24.5 186.5t6.5 251z" />
    <glyph glyph-name="Ugrave" unicode="&#xd9;" horiz-adv-x="1413" 
d="M840 63q159 0 249.5 100.5t90.5 301.5v909h-129v60h319v-60h-117v-895q0 -97 -15 -171.5t-51 -138t-95 -104t-149.5 -63t-211.5 -22.5q-103 0 -185 15.5t-153 52t-118.5 94.5t-74 146t-26.5 204v882h-123v60h613v-60h-138v-934q0 -86 13.5 -150t47 -117.5t97 -81.5
t156.5 -28zM674 1853l266 -325l-25 -27l-327 135q-90 37 -90 107q0 85 96 100z" />
    <glyph glyph-name="Uacute" unicode="&#xda;" horiz-adv-x="1413" 
d="M840 63q-93 0 -156.5 28t-97 81.5t-47 117.5t-13.5 150v934h138v60h-613v-60h123v-882q0 -116 26.5 -204t74 -146t118.5 -94.5t153 -52t185 -15.5q121 0 211.5 22.5t149.5 63t95 104t51 138t15 171.5v895h117v60h-319v-60h129v-909q0 -201 -90.5 -301.5t-249.5 -100.5z
M604 1528l266 325l80 -10q97 -15 97 -100q0 -70 -91 -107l-327 -135z" />
    <glyph glyph-name="Ucircumflex" unicode="&#xdb;" horiz-adv-x="1413" 
d="M840 63q-93 0 -156.5 28t-97 81.5t-47 117.5t-13.5 150v934h138v60h-613v-60h123v-882q0 -116 26.5 -204t74 -146t118.5 -94.5t153 -52t185 -15.5q121 0 211.5 22.5t149.5 63t95 104t51 138t15 171.5v895h117v60h-319v-60h129v-909q0 -201 -90.5 -301.5t-249.5 -100.5z
M453 1526l219 278q60 33 112 33q53 0 85 -20t59 -62l153 -231l-20 -23l-291 139l-299 -139z" />
    <glyph glyph-name="Udieresis" unicode="&#xdc;" horiz-adv-x="1413" 
d="M840 63q159 0 249.5 100.5t90.5 301.5v909h-129v60h319v-60h-117v-895q0 -97 -15 -171.5t-51 -138t-95 -104t-149.5 -63t-211.5 -22.5q-103 0 -185 15.5t-153 52t-118.5 94.5t-74 146t-26.5 204v882h-123v60h613v-60h-138v-934q0 -86 13.5 -150t47 -117.5t97 -81.5
t156.5 -28zM836 1669q0 58 37 98.5t102 40.5t104 -35t39 -104q0 -65 -37 -104t-104 -39q-73 0 -107 41.5t-34 101.5zM428 1669q0 59 37.5 99t103.5 40q65 0 104.5 -35t39.5 -104q0 -65 -37.5 -104t-104.5 -39q-74 0 -108.5 41.5t-34.5 101.5z" />
    <glyph glyph-name="Yacute" unicode="&#xdd;" horiz-adv-x="1296" 
d="M782 762l291 612h-194v60h407v-60h-141l-320 -672v-643h138v-59h-627v59h137v615l-350 700h-115v60h635v-60h-141zM516 1528l266 325l80 -10q96 -15 96 -100q0 -70 -90 -107l-327 -135z" />
    <glyph glyph-name="Thorn" unicode="&#xde;" horiz-adv-x="1294" 
d="M537 1380v-221h86q147 0 253.5 -19t189 -63.5t124 -125t41.5 -197.5q0 -103 -32.5 -180t-88.5 -126.5t-141.5 -80t-181.5 -42.5t-218 -12h-32v-260h256v-53h-752v53h143v1327h-143v54h752v-54h-256zM537 1106v-739h59q146 0 203 87.5t57 299.5q0 141 -25 217t-76.5 105.5
t-146.5 29.5h-71z" />
    <glyph glyph-name="germandbls" unicode="&#xdf;" horiz-adv-x="1382" 
d="M606 -18v364h47q79 -301 328 -301q89 0 139.5 36t50.5 101q0 48 -29 83t-75 58.5t-102 44.5t-112 48t-102 62t-75 93.5t-29 135.5q0 63 19 120.5t50 100.5t68 82.5t74 76.5t68 73t50 79.5t19 89.5q0 89 -69 142t-191 53q-65 0 -111 -16t-72 -41t-40.5 -65t-18.5 -76.5
t-4 -88.5v-1237h-489v53h156v946q0 157 39.5 272t114 183t172.5 100.5t223 32.5q106 0 180.5 -22.5t113 -62t54.5 -81.5t16 -92q0 -65 -25 -121.5t-60.5 -97.5t-71 -77.5t-60.5 -76.5t-25 -79q0 -42 28 -73.5t72 -54t98 -44.5t108 -52t98 -69t72 -103t28 -147
q0 -164 -99.5 -259t-258.5 -95q-115 0 -217 59q-36 20 -51 20q-37 0 -54 -77h-45z" />
    <glyph glyph-name="agrave" unicode="&#xe0;" horiz-adv-x="1107" 
d="M512 489h76v150q0 181 -27.5 244t-105.5 63q-51 0 -81 -19.5t-30 -54.5q0 -26 8 -47h54q16 -43 16 -88q0 -68 -46.5 -108.5t-117.5 -40.5q-81 0 -120.5 43t-39.5 117q0 122 107 184.5t303 62.5q117 0 193 -18.5t127 -64t72.5 -118.5t21.5 -186v-397q0 -115 59 -115
q30 0 48 40.5t28 156.5l47 -4q-7 -174 -64 -241.5t-186 -67.5q-222 0 -256 143q-33 -73 -92.5 -108t-157.5 -35q-299 0 -299 245q0 63 21.5 109.5t59 76t97 47t127.5 24.5t158 7zM469 72q46 0 82.5 55.5t36.5 146.5v164h-31q-88 0 -126 -46.5t-38 -155.5q0 -94 18 -129
t58 -35zM485 1499l140 -383l-31 -18l-270 227q-56 56 -56 111q0 48 38 73.5t83 14.5z" />
    <glyph glyph-name="aacute" unicode="&#xe1;" horiz-adv-x="1107" 
d="M512 489h76v150q0 181 -27.5 244t-105.5 63q-51 0 -81 -19.5t-30 -54.5q0 -26 8 -47h54q16 -43 16 -88q0 -68 -46.5 -108.5t-117.5 -40.5q-81 0 -120.5 43t-39.5 117q0 122 107 184.5t303 62.5q117 0 193 -18.5t127 -64t72.5 -118.5t21.5 -186v-397q0 -115 59 -115
q30 0 48 40.5t28 156.5l47 -4q-7 -174 -64 -241.5t-186 -67.5q-222 0 -256 143q-33 -73 -92.5 -108t-157.5 -35q-299 0 -299 245q0 63 21.5 109.5t59 76t97 47t127.5 24.5t158 7zM469 72q46 0 82.5 55.5t36.5 146.5v164h-31q-88 0 -126 -46.5t-38 -155.5q0 -94 18 -129
t58 -35zM393 1116l139 383l97 25q45 11 83 -14.5t38 -73.5q0 -55 -56 -111l-270 -227z" />
    <glyph glyph-name="acircumflex" unicode="&#xe2;" horiz-adv-x="1107" 
d="M512 489h76v150q0 181 -27.5 244t-105.5 63q-51 0 -81 -19.5t-30 -54.5q0 -26 8 -47h54q16 -43 16 -88q0 -68 -46.5 -108.5t-117.5 -40.5q-81 0 -120.5 43t-39.5 117q0 122 107 184.5t303 62.5q117 0 193 -18.5t127 -64t72.5 -118.5t21.5 -186v-397q0 -115 59 -115
q30 0 48 40.5t28 156.5l47 -4q-7 -174 -64 -241.5t-186 -67.5q-222 0 -256 143q-33 -73 -92.5 -108t-157.5 -35q-299 0 -299 245q0 63 21.5 109.5t59 76t97 47t127.5 24.5t158 7zM469 72q46 0 82.5 55.5t36.5 146.5v164h-31q-88 0 -126 -46.5t-38 -155.5q0 -94 18 -129
t58 -35zM229 1116l183 363q62 32 120 32q92 0 132 -98l124 -299l-22 -14l-256 219l-256 -221z" />
    <glyph glyph-name="atilde" unicode="&#xe3;" horiz-adv-x="1107" 
d="M512 489h76v150q0 181 -27.5 244t-105.5 63q-51 0 -81 -19.5t-30 -54.5q0 -26 8 -47h54q16 -43 16 -88q0 -68 -46.5 -108.5t-117.5 -40.5q-81 0 -120.5 43t-39.5 117q0 122 107 184.5t303 62.5q117 0 193 -18.5t127 -64t72.5 -118.5t21.5 -186v-397q0 -115 59 -115
q30 0 48 40.5t28 156.5l47 -4q-7 -174 -64 -241.5t-186 -67.5q-222 0 -256 143q-33 -73 -92.5 -108t-157.5 -35q-299 0 -299 245q0 63 21.5 109.5t59 76t97 47t127.5 24.5t158 7zM469 72q46 0 82.5 55.5t36.5 146.5v164h-31q-88 0 -126 -46.5t-38 -155.5q0 -94 18 -129
t58 -35zM641 1188q-74 0 -190 49q-82 33 -123 33q-73 0 -109 -86l-39 12q37 134 86.5 197t141.5 63q13 0 25 -1t27.5 -5t23 -6t27 -9t23.5 -8.5t27 -11t25 -10.5q83 -31 116 -31q40 0 67.5 16.5t45.5 69.5l41 -10q-34 -143 -86.5 -202.5t-128.5 -59.5z" />
    <glyph glyph-name="adieresis" unicode="&#xe4;" horiz-adv-x="1107" 
d="M512 489h76v150q0 181 -27.5 244t-105.5 63q-51 0 -81 -19.5t-30 -54.5q0 -26 8 -47h54q16 -43 16 -88q0 -68 -46.5 -108.5t-117.5 -40.5q-81 0 -120.5 43t-39.5 117q0 122 107 184.5t303 62.5q117 0 193 -18.5t127 -64t72.5 -118.5t21.5 -186v-397q0 -115 59 -115
q30 0 48 40.5t28 156.5l47 -4q-7 -174 -64 -241.5t-186 -67.5q-222 0 -256 143q-33 -73 -92.5 -108t-157.5 -35q-299 0 -299 245q0 63 21.5 109.5t59 76t97 47t127.5 24.5t158 7zM469 72q46 0 82.5 55.5t36.5 146.5v164h-31q-88 0 -126 -46.5t-38 -155.5q0 -94 18 -129
t58 -35zM563 1296q0 59 37 99.5t102 40.5t104.5 -35.5t39.5 -104.5q0 -65 -37 -104t-104 -39q-73 0 -107.5 41.5t-34.5 101.5zM166 1296q0 59 37.5 99.5t103.5 40.5q65 0 104.5 -35.5t39.5 -104.5q0 -65 -37.5 -104t-104.5 -39q-74 0 -108.5 41.5t-34.5 101.5z" />
    <glyph glyph-name="aring" unicode="&#xe5;" horiz-adv-x="1107" 
d="M512 489h76v150q0 181 -27.5 244t-105.5 63q-51 0 -81 -19.5t-30 -54.5q0 -26 8 -47h54q16 -43 16 -88q0 -68 -46.5 -108.5t-117.5 -40.5q-81 0 -120.5 43t-39.5 117q0 122 107 184.5t303 62.5q117 0 193 -18.5t127 -64t72.5 -118.5t21.5 -186v-397q0 -115 59 -115
q30 0 48 40.5t28 156.5l47 -4q-7 -174 -64 -241.5t-186 -67.5q-222 0 -256 143q-33 -73 -92.5 -108t-157.5 -35q-299 0 -299 245q0 63 21.5 109.5t59 76t97 47t127.5 24.5t158 7zM469 72q46 0 82.5 55.5t36.5 146.5v164h-31q-88 0 -126 -46.5t-38 -155.5q0 -94 18 -129
t58 -35zM393 1319q0 -51 28 -85t87 -34q54 0 82 33t28 86q0 51 -29 85t-85 34q-53 0 -82 -35t-29 -84zM319 1319q0 76 49.5 126t141.5 50q88 0 135 -47t47 -125q0 -82 -48.5 -132t-137.5 -50q-94 0 -140.5 48t-46.5 130z" />
    <glyph glyph-name="ae" unicode="&#xe6;" horiz-adv-x="1558" 
d="M512 489h76v150q0 181 -27.5 244t-105.5 63q-51 0 -81 -19.5t-30 -54.5q0 -26 8 -47h54q16 -43 16 -88q0 -68 -46.5 -108.5t-117.5 -40.5q-81 0 -120.5 43t-39.5 117q0 122 104 184.5t287 62.5q192 0 289 -116q56 56 138.5 86t173.5 30q215 0 318.5 -118.5t94.5 -348.5
h-592v-67q0 -101 11 -171.5t38.5 -125.5t77.5 -82t125 -27q218 0 287 244l53 -8q-17 -70 -46.5 -123t-79 -97t-127.5 -67.5t-181 -23.5q-266 0 -387 159q-102 -159 -326 -159q-307 0 -307 245q0 63 21.5 109.5t59 76t97 47t127.5 24.5t158 7zM911 584h271q0 215 -23.5 288.5
t-99.5 73.5q-52 0 -83 -30t-48 -110.5t-17 -221.5zM496 72q39 0 85 33t66 88q-50 97 -59 245h-31q-88 0 -126 -46.5t-38 -155.5q0 -95 24 -129.5t79 -34.5z" />
    <glyph glyph-name="ccedilla" unicode="&#xe7;" horiz-adv-x="985" 
d="M588 946q-71 0 -112.5 -42t-63 -144.5t-21.5 -280.5q0 -231 50 -324.5t175 -93.5q65 0 115.5 23.5t81.5 64.5t49 82.5t29 90.5l55 -9q-10 -47 -21.5 -82t-41 -84t-69 -81t-108.5 -57.5t-157 -28.5l-53 -93q49 7 61 7q93 0 142 -48t49 -129q0 -80 -62.5 -140t-187.5 -60
q-85 0 -137 35.5t-52 91.5q0 37 21 57t53 20q62 0 82 -65l-49 -39q0 -28 17 -48t54 -20q41 0 60.5 33t19.5 115q0 84 -13.5 120t-59.5 36q-24 0 -62 -9l-6 21l68 115q-219 8 -336 135t-117 358q0 255 141.5 388.5t390.5 133.5q178 0 272.5 -70t94.5 -190q0 -89 -43 -135.5
t-117 -46.5q-75 0 -120.5 41.5t-45.5 118.5q0 33 11 73h65q12 34 12 66q0 40 -28.5 67t-85.5 27z" />
    <glyph glyph-name="egrave" unicode="&#xe8;" horiz-adv-x="1038" 
d="M41 483q0 129 40 228.5t111.5 160.5t164.5 92t204 31q440 0 422 -467h-592v-67q0 -101 11 -171.5t38.5 -125.5t77.5 -82t125 -27q218 0 287 244l53 -8q-17 -70 -46.5 -123t-79 -97t-127.5 -67.5t-181 -23.5q-252 0 -380 135.5t-128 367.5zM391 584h271q0 215 -23.5 288.5
t-99.5 73.5q-52 0 -83 -30t-48 -110.5t-17 -221.5zM524 1499l140 -383l-31 -18l-271 227q-55 55 -55 111q0 48 38 73.5t83 14.5z" />
    <glyph glyph-name="eacute" unicode="&#xe9;" horiz-adv-x="1038" 
d="M41 483q0 -232 128 -367.5t380 -135.5q103 0 181 23.5t127.5 67.5t79 97t46.5 123l-53 8q-69 -244 -287 -244q-75 0 -125 27t-77.5 82t-38.5 125.5t-11 171.5v67h592q18 467 -422 467q-111 0 -204 -31t-164.5 -92t-111.5 -160.5t-40 -228.5zM662 584h-271q0 141 17 221.5
t48 110.5t83 30q76 0 99.5 -73.5t23.5 -288.5zM432 1116l139 383l97 25q45 11 82.5 -14.5t37.5 -73.5q0 -56 -55 -111l-270 -227z" />
    <glyph glyph-name="ecircumflex" unicode="&#xea;" horiz-adv-x="1038" 
d="M41 483q0 -232 128 -367.5t380 -135.5q103 0 181 23.5t127.5 67.5t79 97t46.5 123l-53 8q-69 -244 -287 -244q-75 0 -125 27t-77.5 82t-38.5 125.5t-11 171.5v67h592q18 467 -422 467q-111 0 -204 -31t-164.5 -92t-111.5 -160.5t-40 -228.5zM662 584h-271q0 141 17 221.5
t48 110.5t83 30q76 0 99.5 -73.5t23.5 -288.5zM268 1116l183 363q62 32 120 32q91 0 131 -98l125 -299l-22 -14l-256 219l-256 -221z" />
    <glyph glyph-name="edieresis" unicode="&#xeb;" horiz-adv-x="1038" 
d="M41 483q0 129 40 228.5t111.5 160.5t164.5 92t204 31q440 0 422 -467h-592v-67q0 -101 11 -171.5t38.5 -125.5t77.5 -82t125 -27q218 0 287 244l53 -8q-17 -70 -46.5 -123t-79 -97t-127.5 -67.5t-181 -23.5q-252 0 -380 135.5t-128 367.5zM391 584h271q0 215 -23.5 288.5
t-99.5 73.5q-52 0 -83 -30t-48 -110.5t-17 -221.5zM602 1296q0 59 37 99.5t102 40.5t104.5 -35.5t39.5 -104.5q0 -65 -37.5 -104t-104.5 -39q-73 0 -107 41.5t-34 101.5zM205 1296q0 59 37.5 99.5t103.5 40.5q65 0 104 -35.5t39 -104.5q0 -65 -37 -104t-104 -39
q-74 0 -108.5 41.5t-34.5 101.5z" />
    <glyph glyph-name="igrave" unicode="&#xec;" horiz-adv-x="636" 
d="M25 975h462v-922h125v-53h-581v53h123v869h-129v53zM279 1499l139 -383l-31 -18l-270 227q-56 56 -56 111q0 48 38 73.5t83 14.5z" />
    <glyph glyph-name="iacute" unicode="&#xed;" horiz-adv-x="636" 
d="M25 975h462v-922h125v-53h-581v53h123v869h-129v53zM186 1116l140 383l96 25q45 11 83 -14.5t38 -73.5q0 -55 -56 -111l-270 -227z" />
    <glyph glyph-name="icircumflex" unicode="&#xee;" horiz-adv-x="636" 
d="M25 975h462v-922h125v-53h-581v53h123v869h-129v53zM23 1116l182 363q62 32 121 32q91 0 131 -98l125 -299l-23 -14l-256 219l-256 -221z" />
    <glyph glyph-name="idieresis" unicode="&#xef;" horiz-adv-x="636" 
d="M25 975h462v-922h125v-53h-581v53h123v869h-129v53zM356 1296q0 58 37.5 99t102.5 41t104 -35.5t39 -104.5q0 -65 -37 -104t-104 -39q-73 0 -107.5 41.5t-34.5 101.5zM-41 1296q0 59 37.5 99.5t103.5 40.5q65 0 104.5 -35.5t39.5 -104.5q0 -65 -37.5 -104t-104.5 -39
q-74 0 -108.5 41.5t-34.5 101.5z" />
    <glyph glyph-name="eth" unicode="&#xf0;" horiz-adv-x="1134" 
d="M479 1167l-26 52l168 127q-110 149 -359 198l6 35q310 0 500 -123l162 123l24 -49l-139 -109q268 -213 268 -725q0 -136 -14.5 -241t-51 -197t-95 -151.5t-150 -93t-213.5 -33.5q-249 0 -383.5 134t-134.5 380q0 103 27 188t72 142t106 96.5t127 57t137 17.5
q183 0 238 -151q-13 192 -30 272q-22 106 -67 182zM559 946q-95 0 -128.5 -101.5t-33.5 -344.5q0 -82 1.5 -135.5t7 -113t16.5 -95.5t29 -67.5t45.5 -45.5t64.5 -14q38 0 65.5 12t46 41t29.5 63t16.5 94.5t7 117.5t1.5 149q0 61 -1.5 105.5t-7 99.5t-17 93.5t-29.5 72.5
t-46.5 51.5t-66.5 17.5z" />
    <glyph glyph-name="ntilde" unicode="&#xf1;" horiz-adv-x="1263" 
d="M33 975h456v-180q18 43 41 75t59.5 62.5t92 46.5t127.5 16q313 0 313 -342v-600h125v-53h-561v53h102v629q0 122 -21.5 163.5t-76.5 41.5q-79 0 -140 -90t-61 -217v-527h105v-53h-561v53h123v869h-123v53zM780 1188q-74 0 -190 49q-82 33 -123 33q-73 0 -109 -86l-39 12
q37 134 86.5 197t141.5 63q13 0 25 -1t27.5 -5t23 -6t27 -9t23.5 -8.5t27 -11t25 -10.5q83 -31 117 -31q39 0 66.5 16.5t45.5 69.5l41 -10q-34 -143 -86.5 -202.5t-128.5 -59.5z" />
    <glyph glyph-name="ograve" unicode="&#xf2;" horiz-adv-x="1105" 
d="M717 496q0 95 -3.5 160.5t-13.5 124t-27.5 92.5t-46 53.5t-69.5 19.5q-53 0 -86.5 -27.5t-51 -90.5t-23 -139.5t-5.5 -201.5q0 -124 5.5 -200.5t23 -139.5t51 -90.5t86.5 -27.5q99 0 129.5 99t30.5 368zM41 483q0 249 135.5 380.5t386.5 131.5q502 0 502 -495
q0 -253 -128 -386.5t-384 -133.5q-251 0 -381.5 130.5t-130.5 372.5zM537 1499l139 -383l-31 -18l-270 227q-56 56 -56 111q0 48 38 73.5t83 14.5z" />
    <glyph glyph-name="oacute" unicode="&#xf3;" horiz-adv-x="1105" 
d="M717 496q0 95 -3.5 160.5t-13.5 124t-27.5 92.5t-46 53.5t-69.5 19.5q-53 0 -86.5 -27.5t-51 -90.5t-23 -139.5t-5.5 -201.5q0 -124 5.5 -200.5t23 -139.5t51 -90.5t86.5 -27.5q99 0 129.5 99t30.5 368zM41 483q0 249 135.5 380.5t386.5 131.5q502 0 502 -495
q0 -253 -128 -386.5t-384 -133.5q-251 0 -381.5 130.5t-130.5 372.5zM444 1116l140 383l96 25q45 11 83 -14.5t38 -73.5q0 -55 -56 -111l-270 -227z" />
    <glyph glyph-name="ocircumflex" unicode="&#xf4;" horiz-adv-x="1105" 
d="M717 496q0 95 -3.5 160.5t-13.5 124t-27.5 92.5t-46 53.5t-69.5 19.5q-53 0 -86.5 -27.5t-51 -90.5t-23 -139.5t-5.5 -201.5q0 -124 5.5 -200.5t23 -139.5t51 -90.5t86.5 -27.5q99 0 129.5 99t30.5 368zM41 483q0 249 135.5 380.5t386.5 131.5q502 0 502 -495
q0 -253 -128 -386.5t-384 -133.5q-251 0 -381.5 130.5t-130.5 372.5zM281 1116l182 363q62 32 121 32q91 0 131 -98l125 -299l-23 -14l-256 219l-256 -221z" />
    <glyph glyph-name="otilde" unicode="&#xf5;" horiz-adv-x="1105" 
d="M717 496q0 95 -3.5 160.5t-13.5 124t-27.5 92.5t-46 53.5t-69.5 19.5q-53 0 -86.5 -27.5t-51 -90.5t-23 -139.5t-5.5 -201.5q0 -124 5.5 -200.5t23 -139.5t51 -90.5t86.5 -27.5q99 0 129.5 99t30.5 368zM41 483q0 249 135.5 380.5t386.5 131.5q502 0 502 -495
q0 -253 -128 -386.5t-384 -133.5q-251 0 -381.5 130.5t-130.5 372.5zM692 1188q-74 0 -190 49q-83 33 -123 33q-73 0 -109 -86l-39 12q37 134 86.5 197t141.5 63q13 0 25 -1t27.5 -5t23 -6t27 -9t23.5 -8.5t27 -11t25 -10.5q83 -31 117 -31q39 0 66.5 16.5t45.5 69.5l41 -10
q-34 -143 -86.5 -202.5t-128.5 -59.5z" />
    <glyph glyph-name="odieresis" unicode="&#xf6;" horiz-adv-x="1105" 
d="M717 496q0 95 -3.5 160.5t-13.5 124t-27.5 92.5t-46 53.5t-69.5 19.5q-53 0 -86.5 -27.5t-51 -90.5t-23 -139.5t-5.5 -201.5q0 -124 5.5 -200.5t23 -139.5t51 -90.5t86.5 -27.5q99 0 129.5 99t30.5 368zM41 483q0 249 135.5 380.5t386.5 131.5q502 0 502 -495
q0 -253 -128 -386.5t-384 -133.5q-251 0 -381.5 130.5t-130.5 372.5zM614 1296q0 58 37.5 99t102.5 41t104 -35.5t39 -104.5q0 -65 -37 -104t-104 -39q-73 0 -107.5 41.5t-34.5 101.5zM217 1296q0 59 37.5 99.5t103.5 40.5q65 0 104.5 -35.5t39.5 -104.5q0 -65 -37.5 -104
t-104.5 -39q-74 0 -108.5 41.5t-34.5 101.5z" />
    <glyph glyph-name="divide" unicode="&#xf7;" 
d="M457 950q0 49 29.5 81t82.5 32t85 -28t32 -83q0 -54 -29.5 -85t-83.5 -31q-61 0 -88.5 32.5t-27.5 81.5zM457 350q0 49 29.5 81t82.5 32t85 -28t32 -83q0 -54 -29.5 -85t-83.5 -31q-61 0 -88.5 32.5t-27.5 81.5zM1028 610h-930v74h930v-74z" />
    <glyph glyph-name="oslash" unicode="&#xf8;" horiz-adv-x="1105" 
d="M41 483q0 249 135.5 380.5t386.5 131.5q75 0 139 -12l62 154l70 -21l-60 -149q291 -90 291 -467q0 -253 -128 -386.5t-384 -133.5q-91 0 -164 18l-65 -164l-70 25l63 159q-276 105 -276 465zM717 496q0 179 -17 284l-268 -671q38 -80 125 -80q99 0 129.5 99t30.5 368z
M391 487q0 -171 10 -256l263 654q-34 61 -107 61q-53 0 -86.5 -27.5t-51 -90.5t-23 -139.5t-5.5 -201.5z" />
    <glyph glyph-name="ugrave" unicode="&#xf9;" horiz-adv-x="1239" 
d="M1212 0h-432l-18 154q-18 -38 -40.5 -66.5t-57.5 -54.5t-87.5 -39.5t-119.5 -13.5q-316 0 -316 342v600h-125v53h459v-688q0 -121 22 -165t78 -44q75 0 128 74.5t53 189.5v580h-111v53h445v-922h122v-53zM563 1499l139 -383l-30 -18l-271 227q-55 55 -55 111
q0 48 38 73.5t83 14.5z" />
    <glyph glyph-name="uacute" unicode="&#xfa;" horiz-adv-x="1239" 
d="M1212 0h-432l-18 154q-18 -38 -40.5 -66.5t-57.5 -54.5t-87.5 -39.5t-119.5 -13.5q-316 0 -316 342v600h-125v53h459v-688q0 -121 22 -165t78 -44q75 0 128 74.5t53 189.5v580h-111v53h445v-922h122v-53zM492 1116l139 383l96 25q45 11 83 -14.5t38 -73.5q0 -56 -55 -111
l-271 -227z" />
    <glyph glyph-name="ucircumflex" unicode="&#xfb;" horiz-adv-x="1239" 
d="M1212 0h-432l-18 154q-18 -38 -40.5 -66.5t-57.5 -54.5t-87.5 -39.5t-119.5 -13.5q-316 0 -316 342v600h-125v53h459v-688q0 -121 22 -165t78 -44q75 0 128 74.5t53 189.5v580h-111v53h445v-922h122v-53zM319 1116l183 363q62 32 121 32q91 0 131 -98l125 -299l-23 -14
l-256 219l-256 -221z" />
    <glyph glyph-name="udieresis" unicode="&#xfc;" horiz-adv-x="1239" 
d="M1212 0h-432l-18 154q-18 -38 -40.5 -66.5t-57.5 -54.5t-87.5 -39.5t-119.5 -13.5q-316 0 -316 342v600h-125v53h459v-688q0 -121 22 -165t78 -44q75 0 128 74.5t53 189.5v580h-111v53h445v-922h122v-53zM662 1296q0 59 37 99.5t102 40.5t104 -35.5t39 -104.5
q0 -65 -37 -104t-104 -39q-73 0 -107 41.5t-34 101.5zM264 1296q0 59 38 99.5t104 40.5q65 0 104 -35.5t39 -104.5q0 -65 -37 -104t-104 -39q-74 0 -109 42t-35 101z" />
    <glyph glyph-name="yacute" unicode="&#xfd;" horiz-adv-x="1087" 
d="M12 975v-53h90l355 -922h123l-43 -127q-61 -177 -109 -250.5t-121 -73.5q-69 0 -69 48q0 24 14 49h72q12 44 12 73q0 65 -41 98t-113 33q-68 0 -110.5 -44.5t-42.5 -120.5q0 -90 62 -143.5t175 -53.5q124 0 191 72t139 274l391 1088h100v53h-303v-53h131l-233 -662
l-227 662h120v53h-563zM442 1116l140 383l96 25q45 11 83 -14.5t38 -73.5q0 -55 -56 -111l-270 -227z" />
    <glyph glyph-name="thorn" unicode="&#xfe;" horiz-adv-x="1193" 
d="M672 901q-81 0 -138 -79.5t-57 -207.5v-335q0 -94 44.5 -162t127.5 -68q86 0 117 96.5t31 346.5q0 161 -12 248.5t-38.5 124t-74.5 36.5zM145 -434v1917h-122v53h452v-717q91 176 295 176q179 0 277 -127.5t98 -382.5q0 -258 -106 -381.5t-314 -123.5q-100 0 -156 26
t-90 80v-520h264v-53h-727v53h129z" />
    <glyph glyph-name="ydieresis" unicode="&#xff;" horiz-adv-x="1087" 
d="M12 922v53h563v-53h-120l227 -662l233 662h-131v53h303v-53h-100l-391 -1088q-72 -202 -139 -274t-191 -72q-113 0 -175 53.5t-62 143.5q0 76 42.5 120.5t110.5 44.5q72 0 113 -33t41 -98q0 -29 -12 -73h-72q-14 -25 -14 -49q0 -48 69 -48q73 0 121 73.5t109 250.5
l43 127h-123l-355 922h-90zM637 1296q0 59 37 99.5t102 40.5t104.5 -35.5t39.5 -104.5q0 -65 -37.5 -104t-104.5 -39q-73 0 -107 41.5t-34 101.5zM240 1296q0 59 37.5 99.5t103.5 40.5q65 0 104 -35.5t39 -104.5q0 -65 -37 -104t-104 -39q-74 0 -108.5 41.5t-34.5 101.5z
" />
    <glyph glyph-name="Amacron" unicode="&#x100;" horiz-adv-x="1406" 
d="M905 59l-143 418h-416l-151 -418h153v-59h-340v59h107l514 1375h151l506 -1375h111v-59h-641v59h149zM563 1069l-196 -532h376zM430 1591v160h557v-160h-557z" />
    <glyph glyph-name="amacron" unicode="&#x101;" horiz-adv-x="1107" 
d="M512 489h76v150q0 181 -27.5 244t-105.5 63q-51 0 -81 -19.5t-30 -54.5q0 -26 8 -47h54q16 -43 16 -88q0 -68 -46.5 -108.5t-117.5 -40.5q-81 0 -120.5 43t-39.5 117q0 122 107 184.5t303 62.5q117 0 193 -18.5t127 -64t72.5 -118.5t21.5 -186v-397q0 -115 59 -115
q30 0 48 40.5t28 156.5l47 -4q-7 -174 -64 -241.5t-186 -67.5q-222 0 -256 143q-33 -73 -92.5 -108t-157.5 -35q-299 0 -299 245q0 63 21.5 109.5t59 76t97 47t127.5 24.5t158 7zM469 72q46 0 82.5 55.5t36.5 146.5v164h-31q-88 0 -126 -46.5t-38 -155.5q0 -94 18 -129
t58 -35zM236 1190v172h557v-172h-557z" />
    <glyph glyph-name="Abreve" unicode="&#x102;" horiz-adv-x="1406" 
d="M905 59l-143 418h-416l-151 -418h153v-59h-340v59h107l514 1375h151l506 -1375h111v-59h-641v59h149zM563 1069l-196 -532h376zM416 1798l41 6q30 -63 85 -90.5t165 -27.5q111 0 164 25.5t79 92.5l39 -6q-25 -291 -289 -291q-76 0 -130 21.5t-84.5 63.5t-46 90t-23.5 116
z" />
    <glyph glyph-name="abreve" unicode="&#x103;" horiz-adv-x="1107" 
d="M512 489h76v150q0 181 -27.5 244t-105.5 63q-51 0 -81 -19.5t-30 -54.5q0 -26 8 -47h54q16 -43 16 -88q0 -68 -46.5 -108.5t-117.5 -40.5q-81 0 -120.5 43t-39.5 117q0 122 107 184.5t303 62.5q117 0 193 -18.5t127 -64t72.5 -118.5t21.5 -186v-397q0 -115 59 -115
q30 0 48 40.5t28 156.5l47 -4q-7 -174 -64 -241.5t-186 -67.5q-222 0 -256 143q-33 -73 -92.5 -108t-157.5 -35q-299 0 -299 245q0 63 21.5 109.5t59 76t97 47t127.5 24.5t158 7zM469 72q46 0 82.5 55.5t36.5 146.5v164h-31q-88 0 -126 -46.5t-38 -155.5q0 -94 18 -129
t58 -35zM221 1444l41 6q29 -83 83 -112t173 -29q121 0 173 27t77 114l39 -6q-25 -334 -295 -334q-63 0 -111.5 17t-79 45.5t-51.5 73t-31.5 91t-17.5 107.5z" />
    <glyph glyph-name="Aogonek" unicode="&#x104;" horiz-adv-x="1406" 
d="M905 53l-143 424h-416l-151 -424h153v-53h-340v53h107l514 1393h151l506 -1393h111v-53h-207q-79 -60 -106 -110t-27 -156q0 -52 17 -77.5t56 -25.5q57 0 115 86l29 -18q-87 -152 -227 -152q-92 0 -142.5 41.5t-50.5 122.5q0 38 12.5 70.5t30.5 57.5t56 54t71 50t94 57
h-362v53h149zM563 1081l-196 -544h376z" />
    <glyph glyph-name="aogonek" unicode="&#x105;" horiz-adv-x="1107" 
d="M512 489h76v150q0 181 -27.5 244t-105.5 63q-51 0 -81 -19.5t-30 -54.5q0 -26 8 -47h54q16 -43 16 -88q0 -68 -46.5 -108.5t-117.5 -40.5q-81 0 -120.5 43t-39.5 117q0 122 107 184.5t303 62.5q117 0 193 -18.5t127 -64t72.5 -118.5t21.5 -186v-397q0 -115 59 -115
q30 0 48 40.5t28 156.5l47 -4q-4 -114 -28.5 -179.5t-74.5 -99.5q-62 -42 -91 -73.5t-43.5 -78.5t-14.5 -124q0 -103 74 -103q56 0 114 86l29 -18q-87 -152 -227 -152q-92 0 -142.5 41.5t-50.5 122.5q0 44 14 79t47 68t70.5 59.5t100.5 64.5q-4 0 -13.5 -1t-13.5 -1
q-222 0 -256 143q-33 -73 -92.5 -108t-157.5 -35q-299 0 -299 245q0 63 21.5 109.5t59 76t97 47t127.5 24.5t158 7zM469 72q46 0 82.5 55.5t36.5 146.5v164h-31q-88 0 -126 -46.5t-38 -155.5q0 -94 18 -129t58 -35z" />
    <glyph glyph-name="Cacute" unicode="&#x106;" horiz-adv-x="1392" 
d="M803 1399q-70 0 -123 -21t-96.5 -69t-71 -126t-42.5 -193.5t-15 -268.5q0 -347 89 -515.5t271 -168.5q133 0 236.5 107t175.5 309h43l-15 -451h-30q-15 41 -51 41q-24 0 -81 -15.5t-141.5 -31.5t-177.5 -16q-329 0 -509.5 179.5t-180.5 545.5q0 181 51 324.5t144 236.5
t220 141.5t281 48.5q87 0 166 -16t132 -31.5t79 -15.5q23 0 31.5 9t15.5 32h33l16 -439h-45q-144 404 -405 404zM602 1528l266 325l80 -10q96 -15 96 -100q0 -70 -90 -107l-327 -135z" />
    <glyph glyph-name="cacute" unicode="&#x107;" horiz-adv-x="985" 
d="M588 946q-71 0 -112.5 -42t-63 -144.5t-21.5 -280.5q0 -231 50 -324.5t175 -93.5q65 0 115.5 23.5t81.5 64.5t49 82.5t29 90.5l55 -9q-7 -33 -14.5 -59t-23.5 -62t-36 -63.5t-53 -57t-73.5 -48.5t-98.5 -31t-127 -12q-230 0 -354.5 127.5t-124.5 365.5q0 255 141.5 388.5
t390.5 133.5q178 0 272.5 -70t94.5 -190q0 -89 -43 -135.5t-117 -46.5q-75 0 -120.5 41.5t-45.5 118.5q0 33 11 73h65q12 34 12 66q0 40 -28.5 67t-85.5 27zM420 1116l139 383l96 25q45 11 83 -14.5t38 -73.5q0 -56 -55 -111l-270 -227z" />
    <glyph glyph-name="Ccircumflex" unicode="&#x108;" horiz-adv-x="1392" 
d="M803 1399q-70 0 -123 -21t-96.5 -69t-71 -126t-42.5 -193.5t-15 -268.5q0 -347 89 -515.5t271 -168.5q133 0 236.5 107t175.5 309h43l-15 -451h-30q-15 41 -51 41q-24 0 -81 -15.5t-141.5 -31.5t-177.5 -16q-329 0 -509.5 179.5t-180.5 545.5q0 181 51 324.5t144 236.5
t220 141.5t281 48.5q87 0 166 -16t132 -31.5t79 -15.5q23 0 31.5 9t15.5 32h33l16 -439h-45q-144 404 -405 404zM451 1526l219 278q60 33 112 33q53 0 85 -20t59 -62l153 -231l-20 -23l-291 139l-299 -139z" />
    <glyph glyph-name="ccircumflex" unicode="&#x109;" horiz-adv-x="985" 
d="M588 946q-71 0 -112.5 -42t-63 -144.5t-21.5 -280.5q0 -231 50 -324.5t175 -93.5q65 0 115.5 23.5t81.5 64.5t49 82.5t29 90.5l55 -9q-7 -33 -14.5 -59t-23.5 -62t-36 -63.5t-53 -57t-73.5 -48.5t-98.5 -31t-127 -12q-230 0 -354.5 127.5t-124.5 365.5q0 255 141.5 388.5
t390.5 133.5q178 0 272.5 -70t94.5 -190q0 -89 -43 -135.5t-117 -46.5q-75 0 -120.5 41.5t-45.5 118.5q0 33 11 73h65q12 34 12 66q0 40 -28.5 67t-85.5 27zM268 1116l183 363q62 32 120 32q91 0 131 -98l125 -299l-22 -14l-256 219l-256 -221z" />
    <glyph glyph-name="Cdotaccent" unicode="&#x10a;" horiz-adv-x="1392" 
d="M803 1399q-70 0 -123 -21t-96.5 -69t-71 -126t-42.5 -193.5t-15 -268.5q0 -347 89 -515.5t271 -168.5q133 0 236.5 107t175.5 309h43l-15 -451h-30q-15 41 -51 41q-24 0 -81 -15.5t-141.5 -31.5t-177.5 -16q-329 0 -509.5 179.5t-180.5 545.5q0 181 51 324.5t144 236.5
t220 141.5t281 48.5q87 0 166 -16t132 -31.5t79 -15.5q23 0 31.5 9t15.5 32h33l16 -439h-45q-144 404 -405 404zM586 1696q0 74 45.5 123t140.5 49q87 0 135.5 -43.5t48.5 -128.5q0 -78 -46 -126t-140 -48q-100 0 -142 51t-42 123z" />
    <glyph glyph-name="cdotaccent" unicode="&#x10b;" horiz-adv-x="985" 
d="M588 946q-71 0 -112.5 -42t-63 -144.5t-21.5 -280.5q0 -231 50 -324.5t175 -93.5q65 0 115.5 23.5t81.5 64.5t49 82.5t29 90.5l55 -9q-7 -33 -14.5 -59t-23.5 -62t-36 -63.5t-53 -57t-73.5 -48.5t-98.5 -31t-127 -12q-230 0 -354.5 127.5t-124.5 365.5q0 255 141.5 388.5
t390.5 133.5q178 0 272.5 -70t94.5 -190q0 -89 -43 -135.5t-117 -46.5q-75 0 -120.5 41.5t-45.5 118.5q0 33 11 73h65q12 34 12 66q0 40 -28.5 67t-85.5 27zM356 1309q0 74 46 123t141 49q87 0 135.5 -43.5t48.5 -128.5q0 -78 -46 -126t-140 -48q-100 0 -142.5 51t-42.5 123
z" />
    <glyph glyph-name="Ccaron" unicode="&#x10c;" horiz-adv-x="1392" 
d="M803 1399q-70 0 -123 -21t-96.5 -69t-71 -126t-42.5 -193.5t-15 -268.5q0 -347 89 -515.5t271 -168.5q133 0 236.5 107t175.5 309h43l-15 -451h-30q-15 41 -51 41q-24 0 -81 -15.5t-141.5 -31.5t-177.5 -16q-329 0 -509.5 179.5t-180.5 545.5q0 181 51 324.5t144 236.5
t220 141.5t281 48.5q87 0 166 -16t132 -31.5t79 -15.5q23 0 31.5 9t15.5 32h33l16 -439h-45q-144 404 -405 404zM1096 1833l-219 -279q-58 -32 -113 -32q-53 0 -84.5 20t-58.5 62l-154 231l20 23l291 -140l299 140z" />
    <glyph glyph-name="ccaron" unicode="&#x10d;" horiz-adv-x="985" 
d="M588 946q-71 0 -112.5 -42t-63 -144.5t-21.5 -280.5q0 -231 50 -324.5t175 -93.5q65 0 115.5 23.5t81.5 64.5t49 82.5t29 90.5l55 -9q-7 -33 -14.5 -59t-23.5 -62t-36 -63.5t-53 -57t-73.5 -48.5t-98.5 -31t-127 -12q-230 0 -354.5 127.5t-124.5 365.5q0 255 141.5 388.5
t390.5 133.5q178 0 272.5 -70t94.5 -190q0 -89 -43 -135.5t-117 -46.5q-75 0 -120.5 41.5t-45.5 118.5q0 33 11 73h65q12 34 12 66q0 40 -28.5 67t-85.5 27zM831 1511l-176 -364q-57 -33 -110 -33q-100 0 -142 98l-131 301l23 15l258 -217l254 219z" />
    <glyph glyph-name="Dcaron" unicode="&#x10e;" horiz-adv-x="1525" 
d="M1440 741q0 -170 -41.5 -299t-114.5 -212t-181.5 -135.5t-231 -73.5t-275.5 -21h-547v59h146v1315h-146v60h602q194 0 337 -37t246 -118t154.5 -215t51.5 -323zM549 59h80q158 0 251 65t138 213.5t45 403.5q0 160 -18.5 271.5t-52 182.5t-92.5 110.5t-129 54t-173 14.5
h-49v-1315zM1006 1833l-220 -279q-58 -32 -112 -32q-53 0 -85 20t-59 62l-153 231l20 23l291 -140l299 140z" />
    <glyph glyph-name="dcaron" unicode="&#x10f;" horiz-adv-x="1359" 
d="M541 76q-58 0 -87.5 35.5t-42 120.5t-12.5 251q0 242 32.5 340.5t121.5 98.5q73 0 118.5 -66.5t45.5 -153.5v-397q0 -109 -54 -169t-122 -60zM721 141l18 -141h428v53h-116v1483h-482v-53h142v-598q-66 110 -250 110q-199 0 -305.5 -128.5t-106.5 -383.5
q0 -249 99.5 -376t277.5 -127q114 0 184.5 40.5t110.5 120.5zM1151 1067l-35 39q96 91 96 184q0 50 -23 81.5t-73 66.5l49 61q38 45 90 45q56 0 85.5 -42t29.5 -101q0 -163 -219 -334z" />
    <glyph glyph-name="Dcroat" unicode="&#x110;" horiz-adv-x="1552" 
d="M61 729v59h160v592h-145v54h602q194 0 336.5 -37t245.5 -118t154.5 -215t51.5 -323q0 -142 -28 -255.5t-82.5 -194t-128 -137.5t-170 -90.5t-202.5 -48.5t-232 -15h-547v53h145v676h-160zM575 53h80q157 0 251 66.5t139 216.5t45 405q0 134 -11.5 233.5t-38 170
t-62 116.5t-90.5 72.5t-116.5 36.5t-146.5 10h-50v-592h306v-59h-306v-676z" />
    <glyph glyph-name="dcroat" unicode="&#x111;" horiz-adv-x="1191" 
d="M739 0l-18 141q-40 -80 -110.5 -120.5t-184.5 -40.5q-178 0 -277.5 127t-99.5 376q0 255 106.5 383.5t305.5 128.5q184 0 250 -110v309h-318v53h318v236h-142v53h482v-289h131v-53h-131v-1141h116v-53h-428zM541 76q68 0 122 60t54 169v397q0 87 -45.5 153.5t-118.5 66.5
q-89 0 -121.5 -98.5t-32.5 -340.5q0 -166 12.5 -251t42 -120.5t87.5 -35.5z" />
    <glyph glyph-name="Emacron" unicode="&#x112;" horiz-adv-x="1273" 
d="M53 1434h1069l21 -400h-47q-63 196 -161 268t-288 72h-110v-612h79q100 0 158 66.5t84 195.5h47v-606h-51q-32 155 -89 216.5t-169 61.5h-59v-637h112q198 0 320 99.5t164 281.5h45l-17 -440h-1108v59h131v1315h-131v60zM354 1591v160h557v-160h-557z" />
    <glyph glyph-name="emacron" unicode="&#x113;" horiz-adv-x="1038" 
d="M41 483q0 -232 128 -367.5t380 -135.5q103 0 181 23.5t127.5 67.5t79 97t46.5 123l-53 8q-69 -244 -287 -244q-75 0 -125 27t-77.5 82t-38.5 125.5t-11 171.5v67h592q18 467 -422 467q-111 0 -204 -31t-164.5 -92t-111.5 -160.5t-40 -228.5zM662 584h-271q0 141 17 221.5
t48 110.5t83 30q76 0 99.5 -73.5t23.5 -288.5zM266 1190v172h557v-172h-557z" />
    <glyph glyph-name="Ebreve" unicode="&#x114;" horiz-adv-x="1273" 
d="M53 1434h1069l21 -400h-47q-63 196 -161 268t-288 72h-110v-612h79q100 0 158 66.5t84 195.5h47v-606h-51q-32 155 -89 216.5t-169 61.5h-59v-637h112q198 0 320 99.5t164 281.5h45l-17 -440h-1108v59h131v1315h-131v60zM340 1798l41 6q30 -63 85 -90.5t165 -27.5
q111 0 164 25.5t79 92.5l39 -6q-25 -291 -288 -291q-76 0 -130 21.5t-85 63.5t-46.5 90t-23.5 116z" />
    <glyph glyph-name="ebreve" unicode="&#x115;" horiz-adv-x="1038" 
d="M41 483q0 129 40 228.5t111.5 160.5t164.5 92t204 31q440 0 422 -467h-592v-67q0 -101 11 -171.5t38.5 -125.5t77.5 -82t125 -27q218 0 287 244l53 -8q-17 -70 -46.5 -123t-79 -97t-127.5 -67.5t-181 -23.5q-252 0 -380 135.5t-128 367.5zM391 584h271q0 215 -23.5 288.5
t-99.5 73.5q-52 0 -83 -30t-48 -110.5t-17 -221.5zM242 1444l41 6q29 -83 83 -112t173 -29q121 0 172.5 27t76.5 114l39 -6q-25 -334 -295 -334q-79 0 -133.5 24.5t-86 73t-47 103.5t-23.5 133z" />
    <glyph glyph-name="Edotaccent" unicode="&#x116;" horiz-adv-x="1273" 
d="M53 1434h1069l21 -400h-47q-63 196 -161 268t-288 72h-110v-612h79q100 0 158 66.5t84 195.5h47v-606h-51q-32 155 -89 216.5t-169 61.5h-59v-637h112q198 0 320 99.5t164 281.5h45l-17 -440h-1108v59h131v1315h-131v60zM442 1696q0 74 46 123t141 49q87 0 135.5 -43.5
t48.5 -128.5q0 -78 -46 -126t-140 -48q-100 0 -142.5 51t-42.5 123z" />
    <glyph glyph-name="edotaccent" unicode="&#x117;" horiz-adv-x="1038" 
d="M41 483q0 129 40 228.5t111.5 160.5t164.5 92t204 31q440 0 422 -467h-592v-67q0 -101 11 -171.5t38.5 -125.5t77.5 -82t125 -27q218 0 287 244l53 -8q-17 -70 -46.5 -123t-79 -97t-127.5 -67.5t-181 -23.5q-252 0 -380 135.5t-128 367.5zM391 584h271q0 215 -23.5 288.5
t-99.5 73.5q-52 0 -83 -30t-48 -110.5t-17 -221.5zM348 1309q0 74 46 123t141 49q87 0 135.5 -43.5t48.5 -128.5q0 -78 -46.5 -126t-140.5 -48q-100 0 -142 51t-42 123z" />
    <glyph glyph-name="Eogonek" unicode="&#x118;" horiz-adv-x="1273" 
d="M53 1434h1069l21 -400h-47q-63 196 -161 268t-288 72h-110v-612h79q100 0 158 66.5t84 195.5h47v-606h-51q-32 155 -89 216.5t-169 61.5h-59v-637h112q198 0 320 99.5t164 281.5h45l-17 -440h-141q-61 -45 -87 -73t-40 -72.5t-14 -120.5q0 -52 17 -77.5t56 -25.5
q57 0 115 86l29 -18q-87 -152 -228 -152q-92 0 -142 41.5t-50 122.5q0 32 7 59t26.5 52.5t36.5 43t56.5 44t66 42t83.5 48.5h-899v59h131v1315h-131v60z" />
    <glyph glyph-name="eogonek" unicode="&#x119;" horiz-adv-x="1038" 
d="M41 483q0 129 40 228.5t111.5 160.5t164.5 92t204 31q440 0 422 -467h-592v-67q0 -101 11 -171.5t38.5 -125.5t77.5 -82t125 -27q218 0 287 244l53 -8q-24 -95 -73.5 -160.5t-141.5 -116.5q-91 -50 -123.5 -107.5t-32.5 -172.5q0 -103 74 -103q57 0 115 86l28 -18
q-87 -152 -227 -152q-92 0 -142 41.5t-50 122.5q0 86 54.5 142.5t186.5 134.5q-62 -8 -102 -8q-252 0 -380 135.5t-128 367.5zM391 584h271q0 215 -23.5 288.5t-99.5 73.5q-52 0 -83 -30t-48 -110.5t-17 -221.5z" />
    <glyph glyph-name="Ecaron" unicode="&#x11a;" horiz-adv-x="1273" 
d="M53 1434h1069l21 -400h-47q-63 196 -161 268t-288 72h-110v-612h79q100 0 158 66.5t84 195.5h47v-606h-51q-32 155 -89 216.5t-169 61.5h-59v-637h112q198 0 320 99.5t164 281.5h45l-17 -440h-1108v59h131v1315h-131v60zM952 1833l-219 -279q-58 -32 -112 -32
q-53 0 -85 20t-59 62l-153 231l20 23l291 -140l299 140z" />
    <glyph glyph-name="ecaron" unicode="&#x11b;" horiz-adv-x="1038" 
d="M41 483q0 -232 128 -367.5t380 -135.5q103 0 181 23.5t127.5 67.5t79 97t46.5 123l-53 8q-69 -244 -287 -244q-75 0 -125 27t-77.5 82t-38.5 125.5t-11 171.5v67h592q18 467 -422 467q-111 0 -204 -31t-164.5 -92t-111.5 -160.5t-40 -228.5zM662 584h-271q0 141 17 221.5
t48 110.5t83 30q76 0 99.5 -73.5t23.5 -288.5zM836 1511l-177 -364q-57 -33 -110 -33q-99 0 -141 98l-132 301l23 15l258 -217l254 219z" />
    <glyph glyph-name="Gcircumflex" unicode="&#x11c;" horiz-adv-x="1472" 
d="M788 37q95 0 136 36.5t49 108.5v342h-146v60h576v-60h-94v-522h-41q-13 26 -32 38.5t-54 12.5q-30 0 -95.5 -18.5t-150.5 -36.5t-162 -18q-329 0 -509.5 178.5t-180.5 541.5q0 182 51.5 326.5t145 238t221 142.5t282.5 49q87 0 166.5 -16t134 -31.5t80.5 -15.5q20 0 28 9
t15 32h39l15 -439h-48q-69 183 -175.5 293.5t-239.5 110.5q-86 0 -147.5 -35t-107 -114t-67.5 -214t-22 -329q0 -670 333 -670zM459 1526l219 278q60 33 113 33t84.5 -20t58.5 -62l153 -231l-20 -23l-291 139l-299 -139z" />
    <glyph glyph-name="gcircumflex" unicode="&#x11d;" horiz-adv-x="1060" 
d="M213 1116l182 363q62 32 121 32q93 0 131 -98l80 -209l-22 -20l-203 141l-264 -227zM911 662q0 176 -147 268q-7 118 24.5 172.5t75.5 54.5q51 0 51 -53l-45 -55q10 -26 40.5 -47t70.5 -21q55 0 88 37t33 92q0 70 -47 110t-117 40q-116 0 -178.5 -87.5t-54.5 -214.5
q-90 37 -199 37q-213 0 -320.5 -96.5t-107.5 -247.5q0 -121 52 -195.5t161 -111.5q-115 -78 -162 -132t-47 -128q0 -76 66 -126t217 -50h215q156 0 213 -33t57 -115q0 -99 -91 -159t-257 -60q-273 0 -273 172q0 55 19 111l-107 53q-155 -44 -155 -164q0 -108 119 -166.5
t366 -58.5q296 0 433.5 104.5t137.5 284.5q0 79 -25 138t-65.5 94.5t-101 57t-121.5 29t-137 7.5h-227q-46 0 -72 3.5t-35.5 9t-9.5 15.5q0 33 100 97q91 -17 160 -17q186 0 294.5 91.5t108.5 259.5zM383 649q0 123 15 189.5t38.5 87t65.5 20.5q40 0 61.5 -20.5t34 -85.5
t12.5 -189q0 -120 -13 -183t-35 -82t-62 -19q-43 0 -66.5 21t-37 83t-13.5 178z" />
    <glyph glyph-name="Gbreve" unicode="&#x11e;" horiz-adv-x="1472" 
d="M788 37q95 0 136 36.5t49 108.5v342h-146v60h576v-60h-94v-522h-41q-13 26 -32 38.5t-54 12.5q-30 0 -95.5 -18.5t-150.5 -36.5t-162 -18q-329 0 -509.5 178.5t-180.5 541.5q0 182 51.5 326.5t145 238t221 142.5t282.5 49q87 0 166.5 -16t134 -31.5t80.5 -15.5q20 0 28 9
t15 32h39l15 -439h-48q-69 183 -175.5 293.5t-239.5 110.5q-86 0 -147.5 -35t-107 -114t-67.5 -214t-22 -329q0 -670 333 -670zM492 1798l40 6q30 -63 85 -90.5t165 -27.5q111 0 164.5 25.5t79.5 92.5l39 -6q-25 -291 -289 -291q-76 0 -130 21.5t-84.5 63.5t-46 90
t-23.5 116z" />
    <glyph glyph-name="gbreve" unicode="&#x11f;" horiz-adv-x="1060" 
d="M201 1444l41 6q29 -83 83 -112t173 -29q121 0 173 27t77 114l38 -6q-6 -74 -23 -132t-50.5 -105t-89 -72t-131.5 -25q-63 0 -111.5 17t-79 45.5t-51.5 73t-31.5 91t-17.5 107.5zM911 662q0 -168 -108.5 -259.5t-294.5 -91.5q-69 0 -160 17q-100 -64 -100 -97
q0 -10 9.5 -15.5t35.5 -9t72 -3.5h227q76 0 137 -7.5t121.5 -29t101 -57t65.5 -94.5t25 -138q0 -180 -137.5 -284.5t-433.5 -104.5q-247 0 -366 58.5t-119 166.5q0 120 155 164l107 -53q-19 -56 -19 -111q0 -172 273 -172q166 0 257 60t91 159q0 82 -57 115t-213 33h-215
q-151 0 -217 50t-66 126q0 74 47 128t162 132q-109 37 -161 111.5t-52 195.5q0 151 107.5 247.5t320.5 96.5q109 0 199 -37q-8 127 54.5 214.5t178.5 87.5q70 0 117 -40t47 -110q0 -55 -33 -92t-88 -37q-40 0 -70.5 21t-40.5 47l45 55q0 53 -51 53q-44 0 -75.5 -54.5
t-24.5 -172.5q147 -92 147 -268zM383 649q0 -116 13.5 -178t37 -83t66.5 -21q40 0 62 19t35 82t13 183q0 124 -12.5 189t-34 85.5t-61.5 20.5q-42 0 -65.5 -20.5t-38.5 -87t-15 -189.5z" />
    <glyph glyph-name="Gdotaccent" unicode="&#x120;" horiz-adv-x="1472" 
d="M788 37q95 0 136 36.5t49 108.5v342h-146v60h576v-60h-94v-522h-41q-13 26 -32 38.5t-54 12.5q-30 0 -95.5 -18.5t-150.5 -36.5t-162 -18q-329 0 -509.5 178.5t-180.5 541.5q0 182 51.5 326.5t145 238t221 142.5t282.5 49q87 0 166.5 -16t134 -31.5t80.5 -15.5q20 0 28 9
t15 32h39l15 -439h-48q-69 183 -175.5 293.5t-239.5 110.5q-86 0 -147.5 -35t-107 -114t-67.5 -214t-22 -329q0 -670 333 -670zM594 1696q0 74 45.5 123t140.5 49q87 0 136 -44t49 -128q0 -78 -46.5 -126t-140.5 -48q-100 0 -142 51t-42 123z" />
    <glyph glyph-name="gdotaccent" unicode="&#x121;" horiz-adv-x="1060" 
d="M911 662q0 -168 -108.5 -259.5t-294.5 -91.5q-69 0 -160 17q-100 -64 -100 -97q0 -10 9.5 -15.5t35.5 -9t72 -3.5h227q76 0 137 -7.5t121.5 -29t101 -57t65.5 -94.5t25 -138q0 -180 -137.5 -284.5t-433.5 -104.5q-247 0 -366 58.5t-119 166.5q0 120 155 164l107 -53
q-19 -56 -19 -111q0 -172 273 -172q166 0 257 60t91 159q0 82 -57 115t-213 33h-215q-151 0 -217 50t-66 126q0 74 47 128t162 132q-109 37 -161 111.5t-52 195.5q0 151 107.5 247.5t320.5 96.5q109 0 199 -37q-8 127 54.5 214.5t178.5 87.5q70 0 117 -40t47 -110
q0 -55 -33 -92t-88 -37q-40 0 -70.5 21t-40.5 47l45 55q0 53 -51 53q-44 0 -75.5 -54.5t-24.5 -172.5q147 -92 147 -268zM383 649q0 -116 13.5 -178t37 -83t66.5 -21q40 0 62 19t35 82t13 183q0 124 -12.5 189t-34 85.5t-61.5 20.5q-42 0 -65.5 -20.5t-38.5 -87t-15 -189.5z
M317 1309q0 74 46 123t141 49q87 0 135.5 -43.5t48.5 -128.5q0 -78 -46 -126t-140 -48q-100 0 -142.5 51t-42.5 123z" />
    <glyph glyph-name="Gcommaaccent" unicode="&#x122;" horiz-adv-x="1472" 
d="M788 37q95 0 136 36.5t49 108.5v342h-146v60h576v-60h-94v-522h-41q-13 26 -32 38.5t-54 12.5q-30 0 -95.5 -18.5t-150.5 -36.5t-162 -18q-329 0 -509.5 178.5t-180.5 541.5q0 182 51.5 326.5t145 238t221 142.5t282.5 49q87 0 166.5 -16t134 -31.5t80.5 -15.5q20 0 28 9
t15 32h39l15 -439h-48q-69 183 -175.5 293.5t-239.5 110.5q-86 0 -147.5 -35t-107 -114t-67.5 -214t-22 -329q0 -670 333 -670zM705 -573l-35 43q74 61 98.5 101t24.5 77q0 33 -29 45l-49 -49q-90 35 -90 120q0 52 37 85.5t94 33.5q68 0 102.5 -45t34.5 -112
q0 -160 -188 -299z" />
    <glyph glyph-name="gcommaaccent" unicode="&#x123;" horiz-adv-x="1060" 
d="M911 662q0 176 -147 268q-7 118 24.5 172.5t75.5 54.5q51 0 51 -53l-45 -55q10 -26 40.5 -47t70.5 -21q55 0 88 37t33 92q0 70 -47 110t-117 40q-116 0 -178.5 -87.5t-54.5 -214.5q-90 37 -199 37q-213 0 -320.5 -96.5t-107.5 -247.5q0 -121 52 -195.5t161 -111.5
q-115 -78 -162 -132t-47 -128q0 -76 66 -126t217 -50h215q156 0 213 -33t57 -115q0 -99 -91 -159t-257 -60q-273 0 -273 172q0 55 19 111l-107 53q-155 -44 -155 -164q0 -108 119 -166.5t366 -58.5q296 0 433.5 104.5t137.5 284.5q0 79 -25 138t-65.5 94.5t-101 57
t-121.5 29t-137 7.5h-227q-46 0 -72 3.5t-35.5 9t-9.5 15.5q0 33 100 97q91 -17 160 -17q186 0 294.5 91.5t108.5 259.5zM383 649q0 123 15 189.5t38.5 87t65.5 20.5q40 0 61.5 -20.5t34 -85.5t12.5 -189q0 -120 -13 -183t-35 -82t-62 -19q-43 0 -66.5 21t-37 83t-13.5 178z
M557 1593l35 -43q-121 -96 -121 -178q0 -35 27 -45l49 49q37 -14 63.5 -44.5t26.5 -76.5q0 -52 -37 -85t-94 -33q-68 0 -102.5 45t-34.5 112q0 72 46.5 150.5t141.5 148.5z" />
    <glyph glyph-name="Hcircumflex" unicode="&#x124;" horiz-adv-x="1540" 
d="M53 1434h615v-60h-131v-606h467v606h-132v60h615v-60h-131v-1315h131v-59h-615v59h132v635h-467v-635h131v-59h-615v59h131v1315h-131v60zM451 1526l219 278q60 33 112 33q53 0 85 -20t59 -62l153 -231l-20 -23l-291 139l-299 -139z" />
    <glyph glyph-name="hcircumflex" unicode="&#x125;" horiz-adv-x="1263" 
d="M33 1536h456v-739q81 198 318 198q315 0 315 -342v-600h125v-53h-561v53h102v635q0 123 -21.5 166t-68.5 43q-87 0 -148 -89t-61 -216v-539h105v-53h-561v53h123v1430h-123v53zM-43 1595l219 279q60 33 113 33t84.5 -20t58.5 -62l154 -232l-21 -22l-291 139l-299 -139z
" />
    <glyph glyph-name="Hbar" unicode="&#x126;" horiz-adv-x="1540" 
d="M53 1434h615v-60h-131v-272h467v272h-132v60h615v-60h-131v-272h153v-60h-153v-983h131v-59h-615v59h132v635h-467v-635h131v-59h-615v59h131v983h-153v60h153v272h-131v60zM537 768h467v274h-467v-274z" />
    <glyph glyph-name="hbar" unicode="&#x127;" horiz-adv-x="1263" 
d="M33 1536h456v-289h342v-53h-342v-397q81 198 318 198q315 0 315 -342v-600h125v-53h-561v53h102v635q0 123 -21.5 166t-68.5 43q-87 0 -148 -89t-61 -216v-539h105v-53h-561v53h123v1141h-133v53h133v236h-123v53z" />
    <glyph glyph-name="Itilde" unicode="&#x128;" horiz-adv-x="720" 
d="M61 1434h598v-60h-122v-1315h122v-59h-598v59h123v1315h-123v60zM498 1569q-75 0 -191 49q-83 33 -123 33q-72 0 -108 -86l-39 12q37 134 86 197t141 63q13 0 25 -1t27.5 -5t23 -6t27 -9t23.5 -8.5t27 -11t25 -10.5q83 -31 117 -31q40 0 67.5 16.5t45.5 69.5l41 -10
q-34 -143 -86.5 -202.5t-128.5 -59.5z" />
    <glyph glyph-name="itilde" unicode="&#x129;" horiz-adv-x="636" 
d="M25 975h462v-922h125v-53h-581v53h123v869h-129v53zM434 1188q-74 0 -190 49q-83 33 -123 33q-73 0 -109 -86l-39 12q37 134 86.5 197t141.5 63q13 0 25 -1t27.5 -5t23 -6t27 -9t23.5 -8.5t27 -11t25 -10.5q83 -31 117 -31q39 0 66.5 16.5t45.5 69.5l41 -10
q-34 -143 -86.5 -202.5t-128.5 -59.5z" />
    <glyph glyph-name="Imacron" unicode="&#x12a;" horiz-adv-x="720" 
d="M61 1434h598v-60h-122v-1315h122v-59h-598v59h123v1315h-123v60zM88 1591v160h557v-160h-557z" />
    <glyph glyph-name="imacron" unicode="&#x12b;" horiz-adv-x="636" 
d="M25 975h462v-922h125v-53h-581v53h123v869h-129v53zM20 1190v172h558v-172h-558z" />
    <glyph glyph-name="Ibreve" unicode="&#x12c;" horiz-adv-x="720" 
d="M61 1434h598v-60h-122v-1315h122v-59h-598v59h123v1315h-123v60zM74 1798l41 6q30 -63 85 -90.5t165 -27.5q111 0 164 25.5t79 92.5l39 -6q-25 -291 -289 -291q-76 0 -130 21.5t-84.5 63.5t-46 90t-23.5 116z" />
    <glyph glyph-name="ibreve" unicode="&#x12d;" horiz-adv-x="636" 
d="M25 975h462v-922h125v-53h-581v53h123v869h-129v53zM6 1444l41 6q29 -83 83 -112t173 -29q121 0 173 27t77 114l39 -6q-25 -334 -295 -334q-63 0 -111.5 17t-79 45.5t-51.5 73t-31.5 91t-17.5 107.5z" />
    <glyph glyph-name="Iogonek" unicode="&#x12e;" horiz-adv-x="720" 
d="M61 1434h598v-60h-122v-1315h122v-59h-172q-79 -60 -106 -110t-27 -156q0 -103 74 -103q57 0 115 86l28 -18q-87 -152 -227 -152q-92 0 -142 41.5t-50 122.5q0 38 12.5 70.5t30.5 57.5t56 54t71 50t94 57h-355v59h123v1315h-123v60z" />
    <glyph glyph-name="iogonek" unicode="&#x12f;" horiz-adv-x="636" 
d="M25 975h462v-922h125v-53h-188q-79 -60 -106 -110t-27 -156q0 -103 74 -103q56 0 114 86l29 -18q-87 -152 -227 -152q-92 0 -142.5 41.5t-50.5 122.5q0 38 12.5 70.5t30.5 57.5t56 54t71 50t94 57h-321v53h123v869h-129v53zM119 1309q0 74 46.5 123t141.5 49
q86 0 134 -43.5t48 -128.5q0 -78 -46 -126t-140 -48q-100 0 -142 51t-42 123z" />
    <glyph glyph-name="Idotaccent" unicode="&#x130;" horiz-adv-x="720" 
d="M61 1434h598v-60h-122v-1315h122v-59h-598v59h123v1315h-123v60zM176 1696q0 74 45.5 123t140.5 49q87 0 136 -44t49 -128q0 -78 -46.5 -126t-140.5 -48q-100 0 -142 51t-42 123z" />
    <glyph glyph-name="dotlessi" unicode="&#x131;" horiz-adv-x="636" 
d="M25 975h462v-922h125v-53h-581v53h123v869h-129v53z" />
    <glyph glyph-name="IJ" unicode="&#x132;" horiz-adv-x="1730" 
d="M61 1434h598v-60h-122v-1315h122v-59h-598v59h123v1315h-123v60zM1055 1434h641v-60h-123v-878q0 -262 -116.5 -388t-348.5 -126q-159 0 -246.5 61.5t-87.5 173.5q0 85 47 133.5t125 48.5q71 0 110.5 -40.5t39.5 -102.5q0 -51 -17 -109h-61q-14 -22 -14 -47q0 -29 27 -48
t67 -19q49 0 74.5 25.5t36 88.5t10.5 187v1040h-164v60z" />
    <glyph glyph-name="Jcircumflex" unicode="&#x134;" horiz-adv-x="1009" 
d="M334 1434h641v-60h-123v-878q0 -262 -116.5 -388t-348.5 -126q-159 0 -246.5 61.5t-87.5 173.5q0 85 47 133.5t125 48.5q71 0 110.5 -40.5t39.5 -102.5q0 -51 -17 -109h-61q-14 -22 -14 -47q0 -29 27 -48t67 -19q49 0 74.5 25.5t36 88.5t10.5 187v1040h-164v60zM332 1526
l219 278q60 33 113 33t84.5 -20t58.5 -62l154 -231l-21 -23l-291 139l-299 -139z" />
    <glyph glyph-name="jcircumflex" unicode="&#x135;" horiz-adv-x="620" 
d="M485 975v-825q0 -662 -460 -662q-80 0 -137.5 20t-87.5 53.5t-43 69.5t-13 76q0 83 49.5 128.5t122.5 45.5q70 0 106.5 -39t36.5 -104q0 -44 -12 -84h-59q-19 -32 -19 -60q0 -55 68 -55q71 0 93 68.5t22 277.5v1037h-170v53h503zM-14 1116l182 363q62 32 121 32
q91 0 131 -98l125 -299l-23 -14l-256 219l-256 -221z" />
    <glyph glyph-name="Kcommaaccent" unicode="&#x136;" horiz-adv-x="1460" 
d="M61 1434h598v-60h-122v-622l32 8l535 614h-143v60h372v-60h-131l-364 -424l489 -891h121v-59h-627v59h103l-346 623l-41 -8v-615h122v-59h-598v59h123v1315h-123v60zM647 -573l-35 43q74 61 98.5 101t24.5 77q0 33 -28 45l-50 -49q-90 35 -90 120q0 52 37 85.5t94 33.5
q68 0 103 -45t35 -112q0 -160 -189 -299z" />
    <glyph glyph-name="kcommaaccent" unicode="&#x137;" horiz-adv-x="1245" 
d="M688 0v53h103l-244 453l-58 -12v-441h105v-53h-561v53h123v1430h-129v53h462v-983l41 10l418 359h-164v53h406v-53h-148l-251 -220l358 -649h86v-53h-547zM549 -573l-35 43q74 61 98.5 101t24.5 77q0 33 -29 45l-49 -49q-90 35 -90 120q0 52 37 85.5t94 33.5
q68 0 102.5 -45t34.5 -112q0 -160 -188 -299z" />
    <glyph glyph-name="kgreenlandic" unicode="&#x138;" horiz-adv-x="1245" 
d="M688 0v53h103l-244 453l-58 -12v-441h105v-53h-561v53h123v869h-129v53h462v-422l41 10l418 359h-164v53h406v-53h-148l-251 -220l358 -649h86v-53h-547z" />
    <glyph glyph-name="Lacute" unicode="&#x139;" horiz-adv-x="1214" 
d="M53 1434h701v-60h-217v-1315h94q95 0 169 27.5t129 84t95.5 127.5t79.5 175h53l-35 -473h-1069v59h131v1315h-131v60zM180 1528l266 325l80 -10q97 -15 97 -100q0 -70 -91 -107l-327 -135z" />
    <glyph glyph-name="lacute" unicode="&#x13a;" horiz-adv-x="636" 
d="M23 1536h462v-1483h125v-53h-581v53h123v1430h-129v53zM86 1610l266 325l80 -10q96 -15 96 -100q0 -70 -90 -107l-327 -135z" />
    <glyph glyph-name="Lcommaaccent" unicode="&#x13b;" horiz-adv-x="1214" 
d="M53 1434h701v-60h-217v-1315h94q95 0 169 27.5t129 84t95.5 127.5t79.5 175h53l-35 -473h-1069v59h131v1315h-131v60zM565 -573l-35 43q74 61 98.5 101t24.5 77q0 33 -28 45l-50 -49q-90 35 -90 120q0 52 37 85.5t94 33.5q68 0 103 -45t35 -112q0 -160 -189 -299z" />
    <glyph glyph-name="lcommaaccent" unicode="&#x13c;" horiz-adv-x="636" 
d="M23 1536h462v-1483h125v-53h-581v53h123v1430h-129v53zM262 -573l-35 43q74 61 98.5 101t24.5 77q0 33 -28 45l-50 -49q-90 35 -90 120q0 52 37 85.5t94 33.5q68 0 103 -45t35 -112q0 -160 -189 -299z" />
    <glyph glyph-name="Lcaron" unicode="&#x13d;" horiz-adv-x="1214" 
d="M53 1434h701v-60h-217v-1315h94q95 0 169 27.5t129 84t95.5 127.5t79.5 175h53l-35 -473h-1069v59h131v1315h-131v60zM893 981l-35 39q96 91 96 184q0 50 -23 81.5t-73 66.5l49 61q38 45 90 45q56 0 85.5 -42t29.5 -101q0 -163 -219 -334z" />
    <glyph glyph-name="lcaron" unicode="&#x13e;" horiz-adv-x="782" 
d="M23 1536h462v-1483h125v-53h-581v53h123v1430h-129v53zM573 1075l-34 39q96 91 96 184q0 50 -23 81.5t-73 66.5l49 61q38 45 90 45q56 0 85.5 -42t29.5 -101q0 -163 -220 -334z" />
    <glyph glyph-name="Ldot" unicode="&#x13f;" horiz-adv-x="1214" 
d="M53 1434h701v-60h-217v-1315h94q95 0 169 27.5t129 84t95.5 127.5t79.5 175h53l-35 -473h-1069v59h131v1315h-131v60zM772 827q0 -72 42 -123t142 -51q94 0 140.5 48t46.5 126q0 84 -49 128t-136 44q-95 0 -140.5 -49t-45.5 -123z" />
    <glyph glyph-name="ldot" unicode="&#x140;" horiz-adv-x="825" 
d="M23 1536h462v-1483h125v-53h-581v53h123v1430h-129v53zM547 831q0 -72 42 -123t142 -51q94 0 140.5 48t46.5 126q0 85 -49 129t-136 44q-95 0 -140.5 -49.5t-45.5 -123.5z" />
    <glyph glyph-name="Lslash" unicode="&#x141;" horiz-adv-x="1214" 
d="M53 1434h701v-60h-217v-540l368 194l15 -61l-383 -201v-707h94q95 0 169 27.5t129 84t95.5 127.5t79.5 175h53l-35 -473h-1069v59h131v545l-139 -74l-14 62l153 82v700h-131v60z" />
    <glyph glyph-name="lslash" unicode="&#x142;" horiz-adv-x="636" 
d="M23 1536h462v-614l133 77l15 -55l-148 -88v-803h125v-53h-581v53h123v668l-132 -74l-16 58l148 81v697h-129v53z" />
    <glyph glyph-name="Nacute" unicode="&#x143;" horiz-adv-x="1417" 
d="M1235 1374v-1374h-242l-737 1325v-1266h123v-59h-318v59h123v1315h-123v60h539l563 -1031v971h-123v60h318v-60h-123zM549 1528l266 325l80 -10q96 -15 96 -100q0 -70 -90 -107l-328 -135z" />
    <glyph glyph-name="nacute" unicode="&#x144;" horiz-adv-x="1263" 
d="M33 975h456v-180q18 43 41 75t59.5 62.5t92 46.5t127.5 16q313 0 313 -342v-600h125v-53h-561v53h102v629q0 122 -21.5 163.5t-76.5 41.5q-79 0 -140 -90t-61 -217v-527h105v-53h-561v53h123v869h-123v53zM524 1116l140 383l96 25q45 11 83 -14.5t38 -73.5
q0 -55 -56 -111l-270 -227z" />
    <glyph glyph-name="Ncommaaccent" unicode="&#x145;" horiz-adv-x="1417" 
d="M1235 1374v-1374h-242l-737 1325v-1266h123v-59h-318v59h123v1315h-123v60h539l563 -1031v971h-123v60h318v-60h-123zM639 -573l-35 43q74 61 98.5 101t24.5 77q0 33 -29 45l-49 -49q-90 35 -90 120q0 52 37 85.5t94 33.5q68 0 102.5 -45t34.5 -112q0 -160 -188 -299z
" />
    <glyph glyph-name="ncommaaccent" unicode="&#x146;" horiz-adv-x="1263" 
d="M33 975h456v-180q18 43 41 75t59.5 62.5t92 46.5t127.5 16q313 0 313 -342v-600h125v-53h-561v53h102v629q0 122 -21.5 163.5t-76.5 41.5q-79 0 -140 -90t-61 -217v-527h105v-53h-561v53h123v869h-123v53zM571 -573l-34 43q74 61 98 101t24 77q0 33 -28 45l-49 -49
q-90 35 -90 120q0 52 37 85.5t94 33.5q68 0 102.5 -45t34.5 -112q0 -160 -189 -299z" />
    <glyph glyph-name="Ncaron" unicode="&#x147;" horiz-adv-x="1417" 
d="M1235 1374v-1374h-242l-737 1325v-1266h123v-59h-318v59h123v1315h-123v60h539l563 -1031v971h-123v60h318v-60h-123zM1079 1833l-219 -279q-58 -32 -112 -32q-53 0 -85 20t-59 62l-153 231l20 23l291 -140l299 140z" />
    <glyph glyph-name="ncaron" unicode="&#x148;" horiz-adv-x="1263" 
d="M33 975h456v-180q18 43 41 75t59.5 62.5t92 46.5t127.5 16q313 0 313 -342v-600h125v-53h-561v53h102v629q0 122 -21.5 163.5t-76.5 41.5q-79 0 -140 -90t-61 -217v-527h105v-53h-561v53h123v869h-123v53zM915 1511l-176 -364q-57 -33 -110 -33q-100 0 -142 98l-131 301
l23 15l258 -217l254 219z" />
    <glyph glyph-name="napostrophe" unicode="&#x149;" horiz-adv-x="1263" 
d="M33 975h456v-180q18 43 41 75t59.5 62.5t92 46.5t127.5 16q313 0 313 -342v-600h125v-53h-561v53h102v629q0 122 -21.5 163.5t-76.5 41.5q-79 0 -140 -90t-61 -217v-527h105v-53h-561v53h123v869h-123v53zM-98 936l-35 43q121 101 121 178q0 33 -27 45l-49 -49
q-37 14 -63.5 44.5t-26.5 76.5q0 52 37 85.5t94 33.5q68 0 102.5 -45.5t34.5 -112.5q0 -72 -46.5 -150.5t-141.5 -148.5z" />
    <glyph glyph-name="Eng" unicode="&#x14a;" horiz-adv-x="1417" 
d="M1235 1374v-1300q0 -514 -404 -514q-159 0 -246 61.5t-87 173.5q0 85 47 133.5t125 48.5q71 0 110 -40t39 -103q0 -53 -16 -108h-62q-14 -22 -14 -48q0 -29 27 -48t67 -19q49 0 74.5 25.5t36 88.5t10.5 187v176l-686 1237v-1266h123v-59h-318v59h123v1315h-123v60h539
l563 -1031v971h-123v60h318v-60h-123z" />
    <glyph glyph-name="eng" unicode="&#x14b;" horiz-adv-x="1257" 
d="M33 975h456v-180q18 43 41 75t59.5 62.5t92 46.5t127.5 16q313 0 313 -342v-503q0 -662 -460 -662q-80 0 -137.5 20t-87.5 53.5t-43 69.5t-13 76q0 83 49.5 128.5t122.5 45.5q70 0 106.5 -39t36.5 -104q0 -44 -12 -84h-59q-19 -32 -19 -60q0 -55 68 -55q71 0 92.5 68.5
t21.5 277.5v797q0 122 -21.5 163.5t-76.5 41.5q-79 0 -140 -90t-61 -217v-527h105v-53h-561v53h123v869h-123v53z" />
    <glyph glyph-name="Omacron" unicode="&#x14c;" horiz-adv-x="1513" 
d="M1055 717q0 110 -2.5 185t-9.5 151.5t-20 125.5t-34.5 93.5t-53 68.5t-75 38t-100.5 14q-58 0 -102.5 -14.5t-76.5 -39.5t-54.5 -70.5t-36 -96.5t-21 -129t-10 -156t-2.5 -189q0 -98 3 -170.5t10.5 -144.5t21.5 -121.5t37 -93.5t54.5 -70t75.5 -40.5t101 -14.5
q76 0 128.5 26.5t85 75t50.5 135t24.5 186.5t6.5 251zM84 698q0 353 181.5 555.5t508.5 202.5q319 0 487.5 -191.5t168.5 -541.5q0 -353 -170 -548t-508 -195q-330 0 -499 186t-169 532zM487 1591v160h557v-160h-557z" />
    <glyph glyph-name="omacron" unicode="&#x14d;" horiz-adv-x="1105" 
d="M717 496q0 95 -3.5 160.5t-13.5 124t-27.5 92.5t-46 53.5t-69.5 19.5q-53 0 -86.5 -27.5t-51 -90.5t-23 -139.5t-5.5 -201.5q0 -124 5.5 -200.5t23 -139.5t51 -90.5t86.5 -27.5q99 0 129.5 99t30.5 368zM41 483q0 249 135.5 380.5t386.5 131.5q502 0 502 -495
q0 -253 -128 -386.5t-384 -133.5q-251 0 -381.5 130.5t-130.5 372.5zM279 1190v172h557v-172h-557z" />
    <glyph glyph-name="Obreve" unicode="&#x14e;" horiz-adv-x="1513" 
d="M1055 717q0 110 -2.5 185t-9.5 151.5t-20 125.5t-34.5 93.5t-53 68.5t-75 38t-100.5 14q-58 0 -102.5 -14.5t-76.5 -39.5t-54.5 -70.5t-36 -96.5t-21 -129t-10 -156t-2.5 -189q0 -98 3 -170.5t10.5 -144.5t21.5 -121.5t37 -93.5t54.5 -70t75.5 -40.5t101 -14.5
q76 0 128.5 26.5t85 75t50.5 135t24.5 186.5t6.5 251zM84 698q0 353 181.5 555.5t508.5 202.5q319 0 487.5 -191.5t168.5 -541.5q0 -353 -170 -548t-508 -195q-330 0 -499 186t-169 532zM473 1798l41 6q30 -63 85 -90.5t165 -27.5q111 0 164.5 25.5t79.5 92.5l39 -6
q-25 -291 -289 -291q-76 0 -130 21.5t-85 63.5t-46.5 90t-23.5 116z" />
    <glyph glyph-name="obreve" unicode="&#x14f;" horiz-adv-x="1105" 
d="M717 496q0 95 -3.5 160.5t-13.5 124t-27.5 92.5t-46 53.5t-69.5 19.5q-53 0 -86.5 -27.5t-51 -90.5t-23 -139.5t-5.5 -201.5q0 -124 5.5 -200.5t23 -139.5t51 -90.5t86.5 -27.5q99 0 129.5 99t30.5 368zM41 483q0 249 135.5 380.5t386.5 131.5q502 0 502 -495
q0 -253 -128 -386.5t-384 -133.5q-251 0 -381.5 130.5t-130.5 372.5zM264 1444l41 6q29 -83 83 -112t173 -29q121 0 173 27t77 114l39 -6q-25 -334 -295 -334q-63 0 -111.5 17t-79 45.5t-51.5 73t-31.5 91t-17.5 107.5z" />
    <glyph glyph-name="Ohungarumlaut" unicode="&#x150;" horiz-adv-x="1513" 
d="M1055 717q0 110 -2.5 185t-9.5 151.5t-20 125.5t-34.5 93.5t-53 68.5t-75 38t-100.5 14q-58 0 -102.5 -14.5t-76.5 -39.5t-54.5 -70.5t-36 -96.5t-21 -129t-10 -156t-2.5 -189q0 -98 3 -170.5t10.5 -144.5t21.5 -121.5t37 -93.5t54.5 -70t75.5 -40.5t101 -14.5
q76 0 128.5 26.5t85 75t50.5 135t24.5 186.5t6.5 251zM84 698q0 353 181.5 555.5t508.5 202.5q319 0 487.5 -191.5t168.5 -541.5q0 -353 -170 -548t-508 -195q-330 0 -499 186t-169 532zM545 1524l188 368l82 11q49 6 78 -16.5t29 -65.5q0 -60 -66 -111l-281 -207zM842 1524
l192 354l82 6q42 3 74.5 -19t32.5 -63q0 -64 -64 -108l-287 -191z" />
    <glyph glyph-name="ohungarumlaut" unicode="&#x151;" horiz-adv-x="1105" 
d="M717 496q0 95 -3.5 160.5t-13.5 124t-27.5 92.5t-46 53.5t-69.5 19.5q-53 0 -86.5 -27.5t-51 -90.5t-23 -139.5t-5.5 -201.5q0 -124 5.5 -200.5t23 -139.5t51 -90.5t86.5 -27.5q99 0 129.5 99t30.5 368zM41 483q0 249 135.5 380.5t386.5 131.5q502 0 502 -495
q0 -253 -128 -386.5t-384 -133.5q-251 0 -381.5 130.5t-130.5 372.5zM655 1116l140 383l88 21q45 11 83 -14.5t38 -73.5q0 -55 -56 -111l-262 -223zM342 1116l139 383l88 21q45 11 83 -14.5t38 -73.5q0 -56 -55 -111l-262 -223z" />
    <glyph glyph-name="OE" unicode="&#x152;" horiz-adv-x="2144" 
d="M1151 1434h842l20 -400h-47q-63 196 -161 268t-287 72h-111v-612h80q100 0 158 66.5t84 195.5h47v-606h-52q-32 155 -89 216.5t-169 61.5h-59v-637h113q198 0 319.5 99.5t163.5 281.5h45l-16 -440h-881v135q-162 -155 -414 -155q-321 0 -487 186.5t-166 531.5
q0 353 179.5 555.5t500.5 202.5q125 0 224.5 -42.5t162.5 -119.5v140zM1055 717q0 110 -2.5 185t-9.5 151.5t-20 125.5t-34.5 93.5t-53 68.5t-75 38t-100.5 14q-58 0 -102.5 -14.5t-76.5 -39.5t-54.5 -70.5t-36 -96.5t-21 -129t-10 -156t-2.5 -189q0 -98 3 -170.5
t10.5 -144.5t21.5 -121.5t37 -93.5t54.5 -70t75.5 -40.5t101 -14.5q76 0 128.5 26.5t85 75t50.5 135t24.5 186.5t6.5 251z" />
    <glyph glyph-name="oe" unicode="&#x153;" horiz-adv-x="1691" 
d="M41 483q0 249 135.5 380.5t386.5 131.5q213 0 314 -141q56 65 149 103t197 38q215 0 318.5 -118.5t94.5 -348.5h-592v-67q0 -101 11 -171.5t38.5 -125.5t77.5 -82t125 -27q218 0 287 244l53 -8q-17 -69 -46 -122.5t-76.5 -97.5t-120.5 -67.5t-168 -23.5q-207 0 -346 133
q-133 -133 -338 -133q-243 0 -371.5 131t-128.5 372zM717 496q0 95 -3.5 160.5t-13.5 124t-27.5 92.5t-46 53.5t-69.5 19.5q-53 0 -86.5 -27.5t-51 -90.5t-23 -139.5t-5.5 -201.5q0 -124 5.5 -200.5t23 -139.5t51 -90.5t86.5 -27.5q99 0 129.5 99t30.5 368zM1044 584h271
q0 215 -23.5 288.5t-99.5 73.5q-52 0 -83 -30t-48 -110.5t-17 -221.5z" />
    <glyph glyph-name="Racute" unicode="&#x154;" horiz-adv-x="1433" 
d="M653 707h-116v-648h153v-59h-649v59h143v1315h-143v60h586q108 0 185 -5t151 -18t122.5 -37t86 -61.5t54.5 -92t17 -128.5q0 -92 -24.5 -157t-73.5 -104.5t-112.5 -60t-151.5 -27.5v-6q175 -22 249 -98t74 -250v-119q0 -96 12.5 -132t55.5 -36q33 0 51 33t39 144l49 -9
q-12 -82 -27 -132t-44.5 -88t-76.5 -54t-120 -16q-177 0 -242 73.5t-65 268.5v178q0 104 -43.5 155.5t-139.5 51.5zM537 1374v-610h61q139 0 203.5 75.5t64.5 254.5q0 62 -7 107.5t-23.5 76t-36.5 50t-52.5 29.5t-65 13.5t-79.5 3.5h-65zM475 1528l266 325l80 -10
q97 -15 97 -100q0 -70 -91 -107l-327 -135z" />
    <glyph glyph-name="racute" unicode="&#x155;" horiz-adv-x="983" 
d="M688 909q-78 0 -138.5 -105t-60.5 -241v-510h164v-53h-620v53h123v869h-123v53h456v-187q31 104 102.5 155.5t166.5 51.5t154 -60t59 -165q0 -87 -42 -134.5t-116 -47.5q-71 0 -113.5 39t-42.5 123q0 26 7 61h63q12 28 12 51q0 47 -51 47zM373 1116l139 383l96 25
q45 11 83 -14.5t38 -73.5q0 -56 -55 -111l-271 -227z" />
    <glyph glyph-name="Rcommaaccent" unicode="&#x156;" horiz-adv-x="1433" 
d="M653 707h-116v-648h153v-59h-649v59h143v1315h-143v60h586q108 0 185 -5t151 -18t122.5 -37t86 -61.5t54.5 -92t17 -128.5q0 -92 -24.5 -157t-73.5 -104.5t-112.5 -60t-151.5 -27.5v-6q175 -22 249 -98t74 -250v-119q0 -96 12.5 -132t55.5 -36q33 0 51 33t39 144l49 -9
q-12 -82 -27 -132t-44.5 -88t-76.5 -54t-120 -16q-177 0 -242 73.5t-65 268.5v178q0 104 -43.5 155.5t-139.5 51.5zM537 1374v-610h61q139 0 203.5 75.5t64.5 254.5q0 62 -7 107.5t-23.5 76t-36.5 50t-52.5 29.5t-65 13.5t-79.5 3.5h-65zM635 -573l-35 43q74 61 98.5 101
t24.5 77q0 33 -29 45l-49 -49q-90 35 -90 120q0 52 37 85.5t94 33.5q68 0 102.5 -45t34.5 -112q0 -160 -188 -299z" />
    <glyph glyph-name="rcommaaccent" unicode="&#x157;" horiz-adv-x="983" 
d="M688 909q-78 0 -138.5 -105t-60.5 -241v-510h164v-53h-620v53h123v869h-123v53h456v-187q31 104 102.5 155.5t166.5 51.5t154 -60t59 -165q0 -87 -42 -134.5t-116 -47.5q-71 0 -113.5 39t-42.5 123q0 26 7 61h63q12 28 12 51q0 47 -51 47zM270 -573l-34 43q74 61 98 101
t24 77q0 33 -28 45l-49 -49q-91 36 -91 120q0 52 37.5 85.5t94.5 33.5q68 0 102.5 -45t34.5 -112q0 -160 -189 -299z" />
    <glyph glyph-name="Rcaron" unicode="&#x158;" horiz-adv-x="1433" 
d="M653 707h-116v-648h153v-59h-649v59h143v1315h-143v60h586q108 0 185 -5t151 -18t122.5 -37t86 -61.5t54.5 -92t17 -128.5q0 -92 -24.5 -157t-73.5 -104.5t-112.5 -60t-151.5 -27.5v-6q175 -22 249 -98t74 -250v-119q0 -96 12.5 -132t55.5 -36q33 0 51 33t39 144l49 -9
q-12 -82 -27 -132t-44.5 -88t-76.5 -54t-120 -16q-177 0 -242 73.5t-65 268.5v178q0 104 -43.5 155.5t-139.5 51.5zM537 1374v-610h61q139 0 203.5 75.5t64.5 254.5q0 62 -7 107.5t-23.5 76t-36.5 50t-52.5 29.5t-65 13.5t-79.5 3.5h-65zM969 1833l-219 -279
q-58 -32 -113 -32q-53 0 -84.5 20t-58.5 62l-154 231l20 23l291 -140l299 140z" />
    <glyph glyph-name="rcaron" unicode="&#x159;" horiz-adv-x="983" 
d="M688 909q-78 0 -138.5 -105t-60.5 -241v-510h164v-53h-620v53h123v869h-123v53h456v-187q31 104 102.5 155.5t166.5 51.5t154 -60t59 -165q0 -87 -42 -134.5t-116 -47.5q-71 0 -113.5 39t-42.5 123q0 26 7 61h63q12 28 12 51q0 47 -51 47zM784 1511l-176 -364
q-57 -33 -110 -33q-100 0 -142 98l-131 301l23 15l258 -217l254 219z" />
    <glyph glyph-name="Sacute" unicode="&#x15a;" horiz-adv-x="1210" 
d="M643 37q117 0 202 61t85 166q0 44 -10 78.5t-35 62.5t-53 48t-78 40.5t-95 34.5t-118 35q-67 19 -117 37t-101 44.5t-86 60t-63 78t-41.5 103.5t-13.5 132q0 86 31 163.5t88 139.5t148.5 98.5t203.5 36.5q78 0 151 -16t123.5 -31.5t73.5 -15.5q21 0 31 9t20 32h35
l14 -414h-43q-38 85 -75.5 147t-89 118t-117.5 85t-146 29q-117 0 -188.5 -59.5t-71.5 -151.5q0 -45 17.5 -81t44.5 -61t75.5 -47.5t92.5 -37t114 -33.5q60 -16 98 -27t93 -32.5t90 -44t74.5 -58t62.5 -77.5t38 -100t15 -128q0 -216 -134 -348.5t-359 -132.5q-86 0 -175 15
t-150.5 30.5t-80.5 15.5t-30.5 -14t-24.5 -47h-39l-20 481h45q35 -85 82 -158.5t107.5 -134.5t138 -96t161.5 -35zM418 1528l266 325l80 -10q96 -15 96 -100q0 -70 -90 -107l-328 -135z" />
    <glyph glyph-name="sacute" unicode="&#x15b;" horiz-adv-x="876" 
d="M70 -20v360h45q44 -162 129 -229.5t217 -67.5q108 0 159.5 36.5t51.5 96.5q0 29 -12.5 51t-26.5 35.5t-53 28.5t-60.5 21t-80.5 21q-4 1 -6.5 1.5t-6 1.5t-6.5 2q-61 15 -100.5 27.5t-91 38.5t-81.5 57t-51.5 82t-21.5 116q0 150 97.5 243t258.5 93q106 0 205 -47
q40 -16 57 -16q20 0 30.5 15t16.5 52h41v-311h-43q-47 128 -121 189t-180 61q-94 0 -143 -31.5t-49 -87.5q0 -27 12.5 -48.5t30 -35t51.5 -27t59.5 -20.5t72.5 -19q6 -1 9.5 -2t9 -2.5t9.5 -2.5q42 -11 70.5 -19.5t67.5 -23.5t65 -31.5t54.5 -42.5t45.5 -57t28 -73.5
t11 -92.5q0 -164 -100.5 -253t-276.5 -89q-133 0 -252 61q-24 16 -37 16q-19 0 -32.5 -16.5t-28.5 -60.5h-43zM313 1116l140 383l96 25q45 11 83 -14.5t38 -73.5q0 -55 -56 -111l-270 -227z" />
    <glyph glyph-name="Scircumflex" unicode="&#x15c;" horiz-adv-x="1210" 
d="M643 37q117 0 202 61t85 166q0 44 -10 78.5t-35 62.5t-53 48t-78 40.5t-95 34.5t-118 35q-67 19 -117 37t-101 44.5t-86 60t-63 78t-41.5 103.5t-13.5 132q0 86 31 163.5t88 139.5t148.5 98.5t203.5 36.5q78 0 151 -16t123.5 -31.5t73.5 -15.5q21 0 31 9t20 32h35
l14 -414h-43q-38 85 -75.5 147t-89 118t-117.5 85t-146 29q-117 0 -188.5 -59.5t-71.5 -151.5q0 -45 17.5 -81t44.5 -61t75.5 -47.5t92.5 -37t114 -33.5q60 -16 98 -27t93 -32.5t90 -44t74.5 -58t62.5 -77.5t38 -100t15 -128q0 -216 -134 -348.5t-359 -132.5q-86 0 -175 15
t-150.5 30.5t-80.5 15.5t-30.5 -14t-24.5 -47h-39l-20 481h45q35 -85 82 -158.5t107.5 -134.5t138 -96t161.5 -35zM287 1526l219 278q60 33 112 33q53 0 85 -20t59 -62l153 -231l-20 -23l-291 139l-299 -139z" />
    <glyph glyph-name="scircumflex" unicode="&#x15d;" horiz-adv-x="876" 
d="M70 -20v360h45q44 -162 129 -229.5t217 -67.5q108 0 159.5 36.5t51.5 96.5q0 29 -12.5 51t-26.5 35.5t-53 28.5t-60.5 21t-80.5 21q-4 1 -6.5 1.5t-6 1.5t-6.5 2q-61 15 -100.5 27.5t-91 38.5t-81.5 57t-51.5 82t-21.5 116q0 150 97.5 243t258.5 93q106 0 205 -47
q40 -16 57 -16q20 0 30.5 15t16.5 52h41v-311h-43q-47 128 -121 189t-180 61q-94 0 -143 -31.5t-49 -87.5q0 -27 12.5 -48.5t30 -35t51.5 -27t59.5 -20.5t72.5 -19q6 -1 9.5 -2t9 -2.5t9.5 -2.5q42 -11 70.5 -19.5t67.5 -23.5t65 -31.5t54.5 -42.5t45.5 -57t28 -73.5
t11 -92.5q0 -164 -100.5 -253t-276.5 -89q-133 0 -252 61q-24 16 -37 16q-19 0 -32.5 -16.5t-28.5 -60.5h-43zM170 1116l182 363q62 32 121 32q91 0 131 -98l125 -299l-22 -14l-256 219l-256 -221z" />
    <glyph glyph-name="Scedilla" unicode="&#x15e;" horiz-adv-x="1210" 
d="M643 37q117 0 202 61t85 166q0 44 -10 78.5t-35 62.5t-53 48t-78 40.5t-95 34.5t-118 35q-67 19 -117 37t-101 44.5t-86 60t-63 78t-41.5 103.5t-13.5 132q0 86 31 163.5t88 139.5t148.5 98.5t203.5 36.5q78 0 151 -16t123.5 -31.5t73.5 -15.5q21 0 31 9t20 32h35
l14 -414h-43q-38 85 -75.5 147t-89 118t-117.5 85t-146 29q-117 0 -188.5 -59.5t-71.5 -151.5q0 -45 17.5 -81t44.5 -61t75.5 -47.5t92.5 -37t114 -33.5q60 -16 98 -27t93 -32.5t90 -44t74.5 -58t62.5 -77.5t38 -100t15 -128q0 -216 -134 -348.5t-359 -132.5l-54 -93
q49 7 62 7q93 0 141.5 -48t48.5 -129q0 -80 -62 -140t-187 -60q-85 0 -137 35.5t-52 91.5q0 37 21 57t53 20q62 0 82 -65l-49 -39q0 -28 17 -48t54 -20q41 0 60.5 33t19.5 115q0 84 -14 120t-60 36q-23 0 -61 -9l-6 21l69 117q-99 6 -218 32.5t-134 26.5q-19 0 -30.5 -14
t-24.5 -47h-39l-20 481h45q35 -85 82 -158.5t107.5 -134.5t138 -96t161.5 -35z" />
    <glyph glyph-name="scedilla" unicode="&#x15f;" horiz-adv-x="876" 
d="M70 -20v360h45q44 -162 129 -229.5t217 -67.5q108 0 159.5 36.5t51.5 96.5q0 29 -12.5 51t-26.5 35.5t-53 28.5t-60.5 21t-80.5 21q-4 1 -6.5 1.5t-6 1.5t-6.5 2q-61 15 -100.5 27.5t-91 38.5t-81.5 57t-51.5 82t-21.5 116q0 150 97.5 243t258.5 93q106 0 205 -47
q40 -16 57 -16q20 0 30.5 15t16.5 52h41v-311h-43q-47 128 -121 189t-180 61q-94 0 -143 -31.5t-49 -87.5q0 -27 12.5 -48.5t30 -35t51.5 -27t59.5 -20.5t72.5 -19q6 -1 9.5 -2t9 -2.5t9.5 -2.5q42 -11 70.5 -19.5t67.5 -23.5t65 -31.5t54.5 -42.5t45.5 -57t28 -73.5
t11 -92.5q0 -163 -100 -251.5t-275 -90.5l-53 -93q49 7 61 7q93 0 142 -48t49 -129q0 -80 -62.5 -140t-187.5 -60q-85 0 -137 35.5t-52 91.5q0 37 21 57t53 20q62 0 82 -65l-49 -39q0 -28 17 -48t54 -20q41 0 60.5 33t19.5 115q0 84 -13.5 120t-59.5 36q-24 0 -62 -9l-6 21
l70 117q-107 8 -201 59q-24 16 -37 16q-19 0 -32.5 -16.5t-28.5 -60.5h-43z" />
    <glyph glyph-name="Scaron" unicode="&#x160;" horiz-adv-x="1210" 
d="M643 37q117 0 202 61t85 166q0 44 -10 78.5t-35 62.5t-53 48t-78 40.5t-95 34.5t-118 35q-67 19 -117 37t-101 44.5t-86 60t-63 78t-41.5 103.5t-13.5 132q0 86 31 163.5t88 139.5t148.5 98.5t203.5 36.5q78 0 151 -16t123.5 -31.5t73.5 -15.5q21 0 31 9t20 32h35
l14 -414h-43q-38 85 -75.5 147t-89 118t-117.5 85t-146 29q-117 0 -188.5 -59.5t-71.5 -151.5q0 -45 17.5 -81t44.5 -61t75.5 -47.5t92.5 -37t114 -33.5q60 -16 98 -27t93 -32.5t90 -44t74.5 -58t62.5 -77.5t38 -100t15 -128q0 -216 -134 -348.5t-359 -132.5q-86 0 -175 15
t-150.5 30.5t-80.5 15.5t-30.5 -14t-24.5 -47h-39l-20 481h45q35 -85 82 -158.5t107.5 -134.5t138 -96t161.5 -35zM911 1833l-219 -279q-58 -32 -112 -32q-53 0 -85 20t-59 62l-153 231l20 23l291 -140l299 140z" />
    <glyph glyph-name="scaron" unicode="&#x161;" horiz-adv-x="876" 
d="M70 -20v360h45q44 -162 129 -229.5t217 -67.5q108 0 159.5 36.5t51.5 96.5q0 29 -12.5 51t-26.5 35.5t-53 28.5t-60.5 21t-80.5 21q-4 1 -6.5 1.5t-6 1.5t-6.5 2q-61 15 -100.5 27.5t-91 38.5t-81.5 57t-51.5 82t-21.5 116q0 150 97.5 243t258.5 93q106 0 205 -47
q40 -16 57 -16q20 0 30.5 15t16.5 52h41v-311h-43q-47 128 -121 189t-180 61q-94 0 -143 -31.5t-49 -87.5q0 -27 12.5 -48.5t30 -35t51.5 -27t59.5 -20.5t72.5 -19q6 -1 9.5 -2t9 -2.5t9.5 -2.5q42 -11 70.5 -19.5t67.5 -23.5t65 -31.5t54.5 -42.5t45.5 -57t28 -73.5
t11 -92.5q0 -164 -100.5 -253t-276.5 -89q-133 0 -252 61q-24 16 -37 16q-19 0 -32.5 -16.5t-28.5 -60.5h-43zM741 1511l-176 -364q-57 -33 -110 -33q-100 0 -142 98l-131 301l23 15l258 -217l254 219z" />
    <glyph glyph-name="uni0162" unicode="&#x162;" horiz-adv-x="1372" 
d="M1282 1434l21 -488h-52q-34 129 -65 207t-73.5 130t-95 71.5t-130.5 19.5h-25v-1315h180v-59h-333l-66 -113q49 7 62 7q93 0 141.5 -48t48.5 -129q0 -80 -62.5 -140t-187.5 -60q-85 0 -136.5 35.5t-51.5 91.5q0 37 20.5 57t52.5 20q62 0 82 -65l-49 -39q0 -28 17.5 -48
t54.5 -20q41 0 60.5 33t19.5 115q0 84 -14 120t-60 36q-23 0 -61 -9l-7 21l80 135h-323v59h180v1315h-27q-149 0 -223 -91.5t-139 -336.5h-53l20 488h1194z" />
    <glyph glyph-name="uni0163" unicode="&#x163;" horiz-adv-x="792" 
d="M125 274v648h-123v53h123v264l336 84v-348h270v-53h-270v-670q0 -93 21.5 -135.5t78.5 -42.5q68 0 111 57t57 162l49 -6q-7 -66 -25 -116.5t-52.5 -95.5t-96 -69.5t-147.5 -25.5l-54 -93q49 7 62 7q93 0 141.5 -48t48.5 -129q0 -80 -62 -140t-187 -60q-85 0 -137 35.5
t-52 91.5q0 37 21 57t53 20q62 0 82 -65l-49 -39q0 -28 17 -48t54 -20q41 0 60.5 33t19.5 115q0 84 -14 120t-60 36q-23 0 -61 -9l-6 21l69 117q-135 8 -206.5 74t-71.5 218z" />
    <glyph glyph-name="Tcaron" unicode="&#x164;" horiz-adv-x="1372" 
d="M1282 1434l21 -488h-52q-34 129 -65 207t-73.5 130t-95 71.5t-130.5 19.5h-25v-1315h180v-59h-712v59h180v1315h-27q-149 0 -223 -91.5t-139 -336.5h-53l20 488h1194zM1010 1833l-219 -279q-58 -32 -113 -32q-53 0 -84.5 20t-58.5 62l-154 231l20 23l291 -140l299 140z
" />
    <glyph glyph-name="tcaron" unicode="&#x165;" horiz-adv-x="792" 
d="M125 274v648h-123v53h123v264l336 84v-348h270v-53h-270v-670q0 -93 21.5 -135.5t78.5 -42.5q68 0 111 57t57 162l49 -6q-7 -66 -25 -116.5t-53 -96t-97.5 -70t-149.5 -24.5q-76 0 -132 13t-102.5 45t-70 91t-23.5 145zM557 1067l-35 39q96 91 96 184q0 50 -23 81.5
t-73 66.5l49 61q38 45 91 45q56 0 85 -42t29 -101q0 -163 -219 -334z" />
    <glyph glyph-name="Tbar" unicode="&#x166;" horiz-adv-x="1372" 
d="M1282 1434l21 -488h-52q-34 129 -65 207t-73.5 130t-95 71.5t-130.5 19.5h-25v-590h326v-59h-326v-666h180v-59h-712v59h180v666h-326v59h326v590h-27q-149 0 -223 -91.5t-139 -336.5h-53l20 488h1194z" />
    <glyph glyph-name="tbar" unicode="&#x167;" horiz-adv-x="792" 
d="M2 578v53h123v291h-123v53h123v264l336 84v-348h270v-53h-270v-291h270v-53h-270v-326q0 -93 21.5 -135.5t78.5 -42.5q68 0 111 57t57 162l49 -6q-7 -66 -25 -116.5t-53 -96t-97.5 -70t-149.5 -24.5q-76 0 -132 13t-102.5 45t-70 91t-23.5 145v304h-123z" />
    <glyph glyph-name="Utilde" unicode="&#x168;" horiz-adv-x="1413" 
d="M840 63q-93 0 -156.5 28t-97 81.5t-47 117.5t-13.5 150v934h138v60h-613v-60h123v-882q0 -116 26.5 -204t74 -146t118.5 -94.5t153 -52t185 -15.5q121 0 211.5 22.5t149.5 63t95 104t51 138t15 171.5v895h117v60h-319v-60h129v-909q0 -201 -90.5 -301.5t-249.5 -100.5z
M909 1569q-74 0 -190 49q-83 33 -123 33q-73 0 -109 -86l-38 12q37 134 86 197t141 63q13 0 25 -1t27.5 -5t23 -6t27 -9t23.5 -8.5t27 -11t25 -10.5q83 -31 117 -31q39 0 66.5 16.5t45.5 69.5l41 -10q-34 -143 -86.5 -202.5t-128.5 -59.5z" />
    <glyph glyph-name="utilde" unicode="&#x169;" horiz-adv-x="1239" 
d="M1212 0h-432l-18 154q-18 -38 -40.5 -66.5t-57.5 -54.5t-87.5 -39.5t-119.5 -13.5q-316 0 -316 342v600h-125v53h459v-688q0 -121 22 -165t78 -44q75 0 128 74.5t53 189.5v580h-111v53h445v-922h122v-53zM731 1188q-74 0 -190 49q-82 33 -123 33q-73 0 -109 -86l-39 12
q37 134 86.5 197t141.5 63q13 0 25 -1t27.5 -5t23 -6t27 -9t23.5 -8.5t27 -11t25 -10.5q83 -31 117 -31q39 0 66.5 16.5t45.5 69.5l41 -10q-34 -143 -86.5 -202.5t-128.5 -59.5z" />
    <glyph glyph-name="Umacron" unicode="&#x16a;" horiz-adv-x="1413" 
d="M840 63q-93 0 -156.5 28t-97 81.5t-47 117.5t-13.5 150v934h138v60h-613v-60h123v-882q0 -116 26.5 -204t74 -146t118.5 -94.5t153 -52t185 -15.5q121 0 211.5 22.5t149.5 63t95 104t51 138t15 171.5v895h117v60h-319v-60h129v-909q0 -201 -90.5 -301.5t-249.5 -100.5z
M500 1591v160h557v-160h-557z" />
    <glyph glyph-name="umacron" unicode="&#x16b;" horiz-adv-x="1239" 
d="M1212 0h-432l-18 154q-18 -38 -40.5 -66.5t-57.5 -54.5t-87.5 -39.5t-119.5 -13.5q-316 0 -316 342v600h-125v53h459v-688q0 -121 22 -165t78 -44q75 0 128 74.5t53 189.5v580h-111v53h445v-922h122v-53zM326 1190v172h557v-172h-557z" />
    <glyph glyph-name="Ubreve" unicode="&#x16c;" horiz-adv-x="1413" 
d="M840 63q159 0 249.5 100.5t90.5 301.5v909h-129v60h319v-60h-117v-895q0 -97 -15 -171.5t-51 -138t-95 -104t-149.5 -63t-211.5 -22.5q-103 0 -185 15.5t-153 52t-118.5 94.5t-74 146t-26.5 204v882h-123v60h613v-60h-138v-934q0 -86 13.5 -150t47 -117.5t97 -81.5
t156.5 -28zM485 1798l41 6q30 -63 85 -90.5t165 -27.5q111 0 164.5 25.5t79.5 92.5l39 -6q-25 -291 -289 -291q-76 0 -130 21.5t-85 63.5t-46.5 90t-23.5 116z" />
    <glyph glyph-name="ubreve" unicode="&#x16d;" horiz-adv-x="1239" 
d="M1212 0h-432l-18 154q-18 -38 -40.5 -66.5t-57.5 -54.5t-87.5 -39.5t-119.5 -13.5q-316 0 -316 342v600h-125v53h459v-688q0 -121 22 -165t78 -44q75 0 128 74.5t53 189.5v580h-111v53h445v-922h122v-53zM311 1444l41 6q29 -83 83 -112t173 -29q121 0 173 27t77 114
l39 -6q-25 -334 -295 -334q-63 0 -111.5 17t-79 45.5t-51.5 73t-31.5 91t-17.5 107.5z" />
    <glyph glyph-name="Uring" unicode="&#x16e;" horiz-adv-x="1413" 
d="M840 63q-93 0 -156.5 28t-97 81.5t-47 117.5t-13.5 150v934h138v60h-613v-60h123v-882q0 -116 26.5 -204t74 -146t118.5 -94.5t153 -52t185 -15.5q121 0 211.5 22.5t149.5 63t95 104t51 138t15 171.5v895h117v60h-319v-60h129v-909q0 -201 -90.5 -301.5t-249.5 -100.5z
M709 1702q0 -50 27.5 -83.5t84.5 -33.5q53 0 81 33.5t28 83.5q0 49 -29.5 83t-83.5 34q-51 0 -79.5 -34.5t-28.5 -82.5zM633 1702q0 76 49 126t141 50q88 0 135.5 -47t47.5 -125q0 -82 -49 -132t-138 -50q-94 0 -140 48t-46 130z" />
    <glyph glyph-name="uring" unicode="&#x16f;" horiz-adv-x="1239" 
d="M1212 0h-432l-18 154q-18 -38 -40.5 -66.5t-57.5 -54.5t-87.5 -39.5t-119.5 -13.5q-316 0 -316 342v600h-125v53h459v-688q0 -121 22 -165t78 -44q75 0 128 74.5t53 189.5v580h-111v53h445v-922h122v-53zM492 1319q0 -51 27.5 -85t86.5 -34q55 0 83 33.5t28 85.5
q0 51 -29.5 85t-85.5 34q-53 0 -81.5 -35t-28.5 -84zM418 1319q0 76 49 126t141 50q88 0 135.5 -47t47.5 -125q0 -82 -49 -132t-138 -50q-94 0 -140 48t-46 130z" />
    <glyph glyph-name="Uhungarumlaut" unicode="&#x170;" horiz-adv-x="1413" 
d="M840 63q-93 0 -156.5 28t-97 81.5t-47 117.5t-13.5 150v934h138v60h-613v-60h123v-882q0 -116 26.5 -204t74 -146t118.5 -94.5t153 -52t185 -15.5q121 0 211.5 22.5t149.5 63t95 104t51 138t15 171.5v895h117v60h-319v-60h129v-909q0 -201 -90.5 -301.5t-249.5 -100.5z
M557 1524l188 368l82 11q49 6 78 -16.5t29 -65.5q0 -60 -66 -111l-280 -207zM854 1524l193 354l81 6q42 3 74.5 -19t32.5 -63q0 -64 -64 -108l-286 -191z" />
    <glyph glyph-name="uhungarumlaut" unicode="&#x171;" horiz-adv-x="1239" 
d="M1212 0h-432l-18 154q-18 -38 -40.5 -66.5t-57.5 -54.5t-87.5 -39.5t-119.5 -13.5q-316 0 -316 342v600h-125v53h459v-688q0 -121 22 -165t78 -44q75 0 128 74.5t53 189.5v580h-111v53h445v-922h122v-53zM702 1116l140 383l88 21q45 11 83 -14.5t38 -73.5q0 -55 -56 -111
l-262 -223zM389 1116l139 383l88 21q45 11 83 -14.5t38 -73.5q0 -56 -55 -111l-262 -223z" />
    <glyph glyph-name="Uogonek" unicode="&#x172;" horiz-adv-x="1413" 
d="M840 63q159 0 249.5 100.5t90.5 301.5v909h-129v60h319v-60h-117v-895q0 -164 -49 -270t-162 -174q-89 -54 -120 -118.5t-31 -182.5q0 -103 74 -103q56 0 114 86l29 -18q-87 -152 -227 -152q-92 0 -142.5 41.5t-50.5 122.5q0 78 58 146.5t163 138.5q-82 -16 -178 -16
q-103 0 -185 15.5t-153 52t-118.5 94.5t-74 146t-26.5 204v882h-123v60h613v-60h-138v-934q0 -86 13.5 -150t47 -117.5t97 -81.5t156.5 -28z" />
    <glyph glyph-name="uogonek" unicode="&#x173;" horiz-adv-x="1239" 
d="M1212 0h-131q-79 -60 -106 -110t-27 -156q0 -103 74 -103q57 0 115 86l28 -18q-87 -152 -227 -152q-92 0 -142.5 41.5t-50.5 122.5q0 38 12.5 70.5t30.5 57t56.5 54.5t71.5 50.5t94 56.5h-230l-18 154q-18 -38 -40.5 -66.5t-57.5 -54.5t-87.5 -39.5t-119.5 -13.5
q-316 0 -316 342v600h-125v53h459v-688q0 -121 22 -165t78 -44q75 0 128 74.5t53 189.5v580h-111v53h445v-922h122v-53z" />
    <glyph glyph-name="Wcircumflex" unicode="&#x174;" horiz-adv-x="2072" 
d="M825 395l205 621l-119 358h-125v60h619v-60h-137l319 -954l268 954h-204v60h413v-60h-133l-395 -1384h-154l-313 915l-299 -915h-147l-502 1384h-113v60h643v-60h-153zM776 1526l219 278q60 33 113 33t84.5 -20t58.5 -62l154 -231l-21 -23l-290 139l-299 -139z" />
    <glyph glyph-name="wcircumflex" unicode="&#x175;" horiz-adv-x="1671" 
d="M684 975v-53h90l53 -189l-163 -477l-201 666h100v53h-553v-53h96l322 -922h209l221 639l209 -639h215l264 922h94v53h-292v-53h141l-191 -662l-198 662h92v53h-508zM666 1116l182 363q62 32 121 32q91 0 131 -98l125 -299l-23 -14l-256 219l-256 -221z" />
    <glyph glyph-name="Ycircumflex" unicode="&#x176;" horiz-adv-x="1296" 
d="M782 762l291 612h-194v60h407v-60h-141l-320 -672v-643h138v-59h-627v59h137v615l-350 700h-115v60h635v-60h-141zM365 1526l219 278q60 33 112 33q53 0 85 -20t59 -62l153 -231l-20 -23l-291 139l-299 -139z" />
    <glyph glyph-name="ycircumflex" unicode="&#x177;" horiz-adv-x="1087" 
d="M12 975v-53h90l355 -922h123l-43 -127q-61 -177 -109 -250.5t-121 -73.5q-69 0 -69 48q0 24 14 49h72q12 44 12 73q0 65 -41 98t-113 33q-68 0 -110.5 -44.5t-42.5 -120.5q0 -90 62 -143.5t175 -53.5q124 0 191 72t139 274l391 1088h100v53h-303v-53h131l-233 -662
l-227 662h120v53h-563zM299 1116l182 363q62 32 121 32q91 0 131 -98l125 -299l-22 -14l-256 219l-256 -221z" />
    <glyph glyph-name="Ydieresis" unicode="&#x178;" horiz-adv-x="1296" 
d="M782 762l291 612h-194v60h407v-60h-141l-320 -672v-643h138v-59h-627v59h137v615l-350 700h-115v60h635v-60h-141zM748 1669q0 58 37 98.5t102 40.5t104 -35t39 -104q0 -65 -37 -104t-104 -39q-73 0 -107 41.5t-34 101.5zM340 1669q0 59 37.5 99t103.5 40q65 0 104.5 -35
t39.5 -104q0 -65 -37.5 -104t-104.5 -39q-74 0 -108.5 41.5t-34.5 101.5z" />
    <glyph glyph-name="Zacute" unicode="&#x179;" horiz-adv-x="1261" 
d="M1143 1434v-56l-641 -1319h129q377 0 491 430h49l-24 -489h-1047v49l648 1325h-136q-78 0 -130.5 -9t-99 -31.5t-83 -67.5t-70.5 -109.5t-73 -165.5h-50l29 443h1008zM467 1528l266 325l80 -10q96 -15 96 -100q0 -70 -90 -107l-327 -135z" />
    <glyph glyph-name="zacute" unicode="&#x17a;" horiz-adv-x="1013" 
d="M954 975v-49l-508 -873h93q160 0 241 78t133 268h43l-30 -399h-852v43l520 879h-82q-98 0 -154.5 -10.5t-101 -47t-71 -95t-56.5 -165.5h-41l25 371h841zM403 1116l140 383l96 25q45 11 83 -14.5t38 -73.5q0 -56 -55 -111l-271 -227z" />
    <glyph glyph-name="Zdotaccent" unicode="&#x17b;" horiz-adv-x="1261" 
d="M1143 1434v-56l-641 -1319h129q377 0 491 430h49l-24 -489h-1047v49l648 1325h-136q-78 0 -130.5 -9t-99 -31.5t-83 -67.5t-70.5 -109.5t-73 -165.5h-50l29 443h1008zM451 1696q0 74 45.5 123t140.5 49q87 0 135.5 -43.5t48.5 -128.5q0 -78 -46 -126t-140 -48
q-100 0 -142 51t-42 123z" />
    <glyph glyph-name="zdotaccent" unicode="&#x17c;" horiz-adv-x="1013" 
d="M954 975v-49l-508 -873h93q160 0 241 78t133 268h43l-30 -399h-852v43l520 879h-82q-98 0 -154.5 -10.5t-101 -47t-71 -95t-56.5 -165.5h-41l25 371h841zM332 1309q0 74 45.5 123t140.5 49q87 0 135.5 -43.5t48.5 -128.5q0 -78 -46 -126t-140 -48q-100 0 -142 51t-42 123
z" />
    <glyph glyph-name="Zcaron" unicode="&#x17d;" horiz-adv-x="1261" 
d="M1143 1434v-56l-641 -1319h129q377 0 491 430h49l-24 -489h-1047v49l648 1325h-136q-78 0 -130.5 -9t-99 -31.5t-83 -67.5t-70.5 -109.5t-73 -165.5h-50l29 443h1008zM961 1833l-220 -279q-58 -32 -112 -32q-53 0 -85 20t-59 62l-153 231l20 23l291 -140l299 140z" />
    <glyph glyph-name="zcaron" unicode="&#x17e;" horiz-adv-x="1013" 
d="M954 975v-49l-508 -873h93q160 0 241 78t133 268h43l-30 -399h-852v43l520 879h-82q-98 0 -154.5 -10.5t-101 -47t-71 -95t-56.5 -165.5h-41l25 371h841zM807 1511l-176 -364q-57 -33 -111 -33q-99 0 -141 98l-131 301l22 15l258 -217l254 219z" />
    <glyph glyph-name="longs" unicode="&#x17f;" horiz-adv-x="755" 
d="M625 1534q-44 0 -72.5 -16t-43 -50.5t-19.5 -75.5t-5 -104v-1235h250v-53h-706v53h123v959q0 137 24 239.5t77.5 178.5t143.5 114.5t217 38.5q82 0 144 -20t97.5 -53.5t53 -72.5t17.5 -83q0 -82 -43.5 -125t-114.5 -43q-73 0 -112.5 37t-39.5 100q0 30 13 84h71
q11 32 11 57q0 34 -24 52t-62 18z" />
    <glyph glyph-name="florin" unicode="&#x192;" horiz-adv-x="1099" 
d="M872 827l-12 -69h-287l-108 -621q-46 -268 -183.5 -418.5t-361.5 -150.5q-141 0 -210.5 62t-69.5 147q0 81 47.5 134.5t130.5 53.5q68 0 104.5 -35t36.5 -90q0 -42 -25 -90l-79 -4q-25 -39 -25 -68q0 -27 24 -43t70 -16q80 0 114.5 58t57.5 190l158 891h-129l12 69h129
l6 47q38 268 180 425t371 157q141 0 210 -59.5t69 -147.5q0 -83 -45 -135.5t-129 -52.5q-69 0 -105.5 35.5t-36.5 89.5q0 43 23 94h78q22 42 22 70q0 24 -23.5 39.5t-66.5 15.5q-80 0 -116 -58.5t-60 -191.5l-57 -328h286z" />
    <glyph glyph-name="Aringacute" unicode="&#x1fa;" horiz-adv-x="1406" 
d="M516 1608q0 76 49.5 126t141.5 50q88 0 135 -47t47 -125q0 -60 -28.5 -105t-80.5 -65l506 -1389h111v-53h-641v53h149l-143 424h-416l-151 -424h153v-53h-340v53h107l512 1387q-111 33 -111 168zM563 1081l-196 -544h376zM512 1825l266 325l80 -10q96 -15 96 -100
q0 -70 -90 -107l-327 -135zM590 1608q0 -51 28 -85t87 -34q54 0 82 33t28 86q0 50 -29.5 84t-85.5 34q-53 0 -81.5 -34.5t-28.5 -83.5z" />
    <glyph glyph-name="aringacute" unicode="&#x1fb;" horiz-adv-x="1107" 
d="M512 489h76v150q0 181 -27.5 244t-105.5 63q-51 0 -81 -19.5t-30 -54.5q0 -26 8 -47h54q16 -43 16 -88q0 -68 -46.5 -108.5t-117.5 -40.5q-81 0 -120.5 43t-39.5 117q0 122 107 184.5t303 62.5q117 0 193 -18.5t127 -64t72.5 -118.5t21.5 -186v-397q0 -115 59 -115
q30 0 48 40.5t28 156.5l47 -4q-7 -174 -64 -241.5t-186 -67.5q-222 0 -256 143q-33 -73 -92.5 -108t-157.5 -35q-299 0 -299 245q0 63 21.5 109.5t59 76t97 47t127.5 24.5t158 7zM469 72q46 0 82.5 55.5t36.5 146.5v164h-31q-88 0 -126 -46.5t-38 -155.5q0 -94 18 -129
t58 -35zM393 1239q0 -51 28 -85t87 -34q54 0 82 33t28 86q0 51 -29 85t-85 34q-53 0 -82 -35t-29 -84zM319 1239q0 76 49.5 126t141.5 50q88 0 135 -47t47 -125q0 -82 -48.5 -132t-137.5 -50q-94 0 -140.5 48t-46.5 130zM293 1448l266 326l80 -11q96 -15 96 -100
q0 -70 -90 -107l-328 -135z" />
    <glyph glyph-name="AEacute" unicode="&#x1fc;" horiz-adv-x="2015" 
d="M633 1434h1231l20 -400h-47q-63 196 -161 268t-287 72h-111v-626h80q100 0 157.5 66.5t83.5 195.5h48v-607h-52q-32 156 -89 217.5t-169 61.5h-59v-623h113q198 0 319.5 99.5t163.5 281.5h45l-16 -440h-1108v59h131v619h-410l-321 -619h153v-59h-340v59h107l678 1315
h-160v60zM926 1374h-54l-325 -631h379v631zM1092 1528l266 325l80 -10q96 -15 96 -100q0 -70 -90 -107l-328 -135z" />
    <glyph glyph-name="aeacute" unicode="&#x1fd;" horiz-adv-x="1558" 
d="M512 489h76v150q0 181 -27.5 244t-105.5 63q-51 0 -81 -19.5t-30 -54.5q0 -26 8 -47h54q16 -43 16 -88q0 -68 -46.5 -108.5t-117.5 -40.5q-81 0 -120.5 43t-39.5 117q0 122 104 184.5t287 62.5q192 0 289 -116q56 56 138.5 86t173.5 30q215 0 318.5 -118.5t94.5 -348.5
h-592v-67q0 -101 11 -171.5t38.5 -125.5t77.5 -82t125 -27q218 0 287 244l53 -8q-17 -70 -46.5 -123t-79 -97t-127.5 -67.5t-181 -23.5q-266 0 -387 159q-102 -159 -326 -159q-307 0 -307 245q0 63 21.5 109.5t59 76t97 47t127.5 24.5t158 7zM911 584h271q0 215 -23.5 288.5
t-99.5 73.5q-52 0 -83 -30t-48 -110.5t-17 -221.5zM496 72q39 0 85 33t66 88q-50 97 -59 245h-31q-88 0 -126 -46.5t-38 -155.5q0 -95 24 -129.5t79 -34.5zM688 1116l139 383l97 25q45 11 82.5 -14.5t37.5 -73.5q0 -56 -55 -111l-270 -227z" />
    <glyph glyph-name="Oslashacute" unicode="&#x1fe;" horiz-adv-x="1513" 
d="M420 -154l59 174q-196 67 -295.5 240t-99.5 438q0 353 181.5 555.5t508.5 202.5q92 0 187 -20l55 166l76 -23l-56 -164q193 -69 293.5 -246.5t100.5 -445.5q0 -353 -170 -548t-508 -195q-113 0 -197 20l-61 -178zM457 698q0 -202 15 -328t56 -204l402 1177
q-65 50 -170 50q-58 0 -102.5 -14.5t-76.5 -39.5t-54.5 -70.5t-36 -96.5t-21 -129t-10 -156t-2.5 -189zM1055 717q0 223 -13.5 352t-54.5 205l-399 -1180q63 -51 172 -51q76 0 128.5 26.5t85 75t50.5 135t24.5 186.5t6.5 251zM592 1528l266 325l80 -10q96 -15 96 -100
q0 -70 -90 -107l-328 -135z" />
    <glyph glyph-name="oslashacute" unicode="&#x1ff;" horiz-adv-x="1105" 
d="M41 483q0 249 135.5 380.5t386.5 131.5q75 0 139 -12l62 154l70 -21l-60 -149q291 -90 291 -467q0 -253 -128 -386.5t-384 -133.5q-91 0 -164 18l-65 -164l-70 25l63 159q-276 105 -276 465zM717 496q0 179 -17 284l-268 -671q38 -80 125 -80q99 0 129.5 99t30.5 368z
M391 487q0 -171 10 -256l263 654q-34 61 -107 61q-53 0 -86.5 -27.5t-51 -90.5t-23 -139.5t-5.5 -201.5zM444 1116l140 383l96 25q45 11 83 -14.5t38 -73.5q0 -55 -56 -111l-270 -227z" />
    <glyph glyph-name="Scommaaccent" unicode="&#x218;" horiz-adv-x="1210" 
d="M643 37q117 0 202 61t85 166q0 44 -10 78.5t-35 62.5t-53 48t-78 40.5t-95 34.5t-118 35q-67 19 -117 37t-101 44.5t-86 60t-63 78t-41.5 103.5t-13.5 132q0 86 31 163.5t88 139.5t148.5 98.5t203.5 36.5q78 0 151 -16t123.5 -31.5t73.5 -15.5q21 0 31 9t20 32h35
l14 -414h-43q-38 85 -75.5 147t-89 118t-117.5 85t-146 29q-117 0 -188.5 -59.5t-71.5 -151.5q0 -45 17.5 -81t44.5 -61t75.5 -47.5t92.5 -37t114 -33.5q60 -16 98 -27t93 -32.5t90 -44t74.5 -58t62.5 -77.5t38 -100t15 -128q0 -216 -134 -348.5t-359 -132.5q-86 0 -175 15
t-150.5 30.5t-80.5 15.5t-30.5 -14t-24.5 -47h-39l-20 481h45q35 -85 82 -158.5t107.5 -134.5t138 -96t161.5 -35zM545 -573l-35 43q74 61 98.5 101t24.5 77q0 33 -29 45l-49 -49q-90 35 -90 120q0 52 37 85.5t94 33.5q68 0 102.5 -45t34.5 -112q0 -160 -188 -299z" />
    <glyph glyph-name="scommaaccent" unicode="&#x219;" horiz-adv-x="876" 
d="M70 -20v360h45q44 -162 129 -229.5t217 -67.5q108 0 159.5 36.5t51.5 96.5q0 29 -12.5 51t-26.5 35.5t-53 28.5t-60.5 21t-80.5 21q-4 1 -6.5 1.5t-6 1.5t-6.5 2q-61 15 -100.5 27.5t-91 38.5t-81.5 57t-51.5 82t-21.5 116q0 150 97.5 243t258.5 93q106 0 205 -47
q40 -16 57 -16q20 0 30.5 15t16.5 52h41v-311h-43q-47 128 -121 189t-180 61q-94 0 -143 -31.5t-49 -87.5q0 -27 12.5 -48.5t30 -35t51.5 -27t59.5 -20.5t72.5 -19q6 -1 9.5 -2t9 -2.5t9.5 -2.5q42 -11 70.5 -19.5t67.5 -23.5t65 -31.5t54.5 -42.5t45.5 -57t28 -73.5
t11 -92.5q0 -164 -100.5 -253t-276.5 -89q-133 0 -252 61q-24 16 -37 16q-19 0 -32.5 -16.5t-28.5 -60.5h-43zM389 -573l-35 43q74 61 98.5 101t24.5 77q0 33 -28 45l-50 -49q-90 35 -90 120q0 52 37 85.5t94 33.5q68 0 103 -45t35 -112q0 -160 -189 -299z" />
    <glyph glyph-name="uni021A" unicode="&#x21a;" horiz-adv-x="1372" 
d="M1282 1434l21 -488h-52q-34 129 -65 207t-73.5 130t-95 71.5t-130.5 19.5h-25v-1315h180v-59h-712v59h180v1315h-27q-149 0 -223 -91.5t-139 -336.5h-53l20 488h1194zM631 -573l-35 43q74 61 98.5 101t24.5 77q0 33 -29 45l-49 -49q-90 35 -90 120q0 52 37 85.5t94 33.5
q68 0 102.5 -45t34.5 -112q0 -160 -188 -299z" />
    <glyph glyph-name="uni021B" unicode="&#x21b;" horiz-adv-x="792" 
d="M125 274v648h-123v53h123v264l336 84v-348h270v-53h-270v-670q0 -93 21.5 -135.5t78.5 -42.5q68 0 111 57t57 162l49 -6q-7 -66 -25 -116.5t-53 -96t-97.5 -70t-149.5 -24.5q-76 0 -132 13t-102.5 45t-70 91t-23.5 145zM389 -573l-35 43q74 61 98.5 101t24.5 77
q0 33 -28 45l-50 -49q-90 35 -90 120q0 52 37 85.5t94 33.5q68 0 103 -45t35 -112q0 -160 -189 -299z" />
    <glyph glyph-name="dotlessj" unicode="&#x237;" horiz-adv-x="620" 
d="M485 975v-825q0 -662 -460 -662q-80 0 -137.5 20t-87.5 53.5t-43 69.5t-13 76q0 83 49.5 128.5t122.5 45.5q70 0 106.5 -39t36.5 -104q0 -44 -12 -84h-59q-19 -32 -19 -60q0 -55 68 -55q71 0 93 68.5t22 277.5v1037h-170v53h503z" />
    <glyph glyph-name="apostrophe" unicode="&#x2bc;" horiz-adv-x="432" 
d="M154 1014l-35 43q121 101 121 178q0 33 -27 45l-49 -49q-37 14 -63.5 44.5t-26.5 76.5q0 52 37 85t94 33q68 0 102.5 -45t34.5 -112q0 -72 -46.5 -150.5t-141.5 -148.5z" />
    <glyph glyph-name="circumflex" unicode="&#x2c6;" horiz-adv-x="1024" 
d="M242 1116l182 363q62 32 121 32q91 0 131 -98l125 -299l-23 -14l-256 219l-256 -221z" />
    <glyph glyph-name="caron" unicode="&#x2c7;" horiz-adv-x="1024" 
d="M801 1511l-176 -364q-57 -33 -111 -33q-99 0 -141 98l-131 301l22 15l258 -217l254 219z" />
    <glyph glyph-name="uni02C9" unicode="&#x2c9;" horiz-adv-x="1024" 
d="M233 1190v172h558v-172h-558z" />
    <glyph glyph-name="breve" unicode="&#x2d8;" horiz-adv-x="1024" 
d="M219 1444l41 6q29 -83 83 -112t173 -29q121 0 173 27t77 114l39 -6q-25 -334 -295 -334q-63 0 -111.5 17t-79 45.5t-51.5 73t-31.5 91t-17.5 107.5z" />
    <glyph glyph-name="dotaccent" unicode="&#x2d9;" horiz-adv-x="1024" 
d="M322 1309q0 74 45.5 123t140.5 49q87 0 135.5 -43.5t48.5 -128.5q0 -78 -46 -126t-140 -48q-100 0 -142 51t-42 123z" />
    <glyph glyph-name="ring" unicode="&#x2da;" horiz-adv-x="1024" 
d="M399 1319q0 -51 28 -85t87 -34q55 0 83 33.5t28 85.5q0 51 -29.5 85t-85.5 34q-53 0 -82 -35t-29 -84zM326 1319q0 76 49 126t141 50q88 0 135 -47t47 -125q0 -82 -48.5 -132t-137.5 -50q-94 0 -140 48t-46 130z" />
    <glyph glyph-name="ogonek" unicode="&#x2db;" horiz-adv-x="1024" 
d="M582 23h30l15 -13q-63 -47 -90.5 -76.5t-42.5 -76t-15 -123.5q0 -103 74 -103q57 0 115 86l28 -18q-87 -152 -227 -152q-92 0 -142.5 41.5t-50.5 122.5q0 49 15.5 86t63.5 77t83.5 63t128.5 77z" />
    <glyph glyph-name="tilde" unicode="&#x2dc;" horiz-adv-x="1024" 
d="M635 1188q-75 0 -191 49q-83 33 -122 33q-73 0 -109 -86l-39 12q37 134 86 197t141 63q11 0 23.5 -1.5t21 -2.5t23.5 -5.5t21 -6.5t23.5 -8.5t21 -8t23.5 -9.5t22 -9q83 -31 116 -31q40 0 67.5 16.5t45.5 69.5l41 -10q-34 -143 -86.5 -202.5t-128.5 -59.5z" />
    <glyph glyph-name="hungarumlaut" unicode="&#x2dd;" horiz-adv-x="1024" 
d="M512 1116l139 383l88 21q45 11 83 -14.5t38 -73.5q0 -56 -55 -111l-262 -223zM199 1116l139 383l88 21q45 11 83 -14.5t38 -73.5q0 -56 -55 -111l-263 -223z" />
    <glyph glyph-name="uni0394" unicode="&#x394;" horiz-adv-x="1280" 
d="M1280 0h-1280l580 1466h168zM489 1083l-393 -991h719z" />
    <glyph glyph-name="uni03A9" unicode="&#x3a9;" horiz-adv-x="1765" 
d="M987 0v215q56 47 83.5 75t57 72t41.5 96.5t19.5 131.5t7.5 194q0 74 -1.5 126.5t-8 121t-18 115.5t-32.5 97t-51 80t-74.5 49.5t-101.5 19.5q-60 0 -107 -18t-78.5 -47t-54.5 -76t-36 -94t-20 -114t-9 -122t-2 -131q0 -147 8 -240.5t29.5 -156t45 -97t69.5 -80.5v-217
h-627l-25 541h35q14 -75 34 -124.5t49 -85t73 -54.5t100.5 -27t138.5 -8h140q-116 52 -197.5 106.5t-143.5 124t-92 158t-30 198.5q0 286 184 456.5t512 170.5q326 0 501 -160t175 -448q0 -70 -18.5 -135.5t-45 -114.5t-73 -98.5t-83.5 -81t-97.5 -70t-94 -57t-92.5 -49.5
h160q82 0 138.5 8t100.5 27t73 54.5t49 85t34 124.5h31l-25 -541h-651z" />
    <glyph glyph-name="uni03BC" unicode="&#x3bc;" horiz-adv-x="1175" 
d="M549 1026v-676v-9q0 -43 0.5 -64t2.5 -54t7 -49.5t14 -34.5t23.5 -25.5t34.5 -7.5q61 0 110.5 80t49.5 211v611l362 18v-831q0 -50 14.5 -69.5t44.5 -19.5q72 0 82 191l47 -2q-7 -177 -71.5 -246t-194.5 -69q-124 0 -194 55t-90 147q-32 -90 -100 -147.5t-156 -57.5
q-27 0 -49 3t-48.5 13.5t-49 29t-47.5 51.5t-46 78l-8 -7l119 -290q7 -18 20.5 -50.5t19 -45.5t13.5 -35.5t11.5 -34.5t6 -27t2.5 -27q0 -45 -41.5 -74t-87.5 -18l-186 39v1426z" />
    <glyph glyph-name="pi" unicode="&#x3c0;" horiz-adv-x="1263" 
d="M944 743h-90q-20 -166 -20 -290q0 -29 4.5 -60.5t17 -68t31 -64.5t50 -46.5t71.5 -18.5q60 0 97.5 32.5t57.5 104.5l31 -8q-14 -87 -44.5 -162t-87.5 -130t-128 -55q-195 0 -195 263q0 58 4.5 113.5t10 94t20.5 133.5t25 167l-330 22q2 -256 -2.5 -390.5t-20.5 -223.5
q-19 -97 -65 -138t-105 -41q-61 0 -96 37t-35 88q0 41 16.5 73.5t69.5 100.5q80 104 104 148q64 115 79 316l2 34q-17 0 -72 3t-59 3q-45 0 -70.5 -18t-52.5 -72l-45 15q65 362 229 362q52 0 348.5 -17.5t349.5 -17.5q36 0 58 18.5t43 69.5l47 -12q-37 -187 -93.5 -276
t-154.5 -89z" />
    <glyph glyph-name="Wgrave" unicode="&#x1e80;" horiz-adv-x="2072" 
d="M825 395l205 621l-119 358h-125v60h619v-60h-137l319 -954l268 954h-204v60h413v-60h-133l-395 -1384h-154l-313 915l-299 -915h-147l-502 1384h-113v60h643v-60h-153zM1018 1853l266 -325l-24 -27l-328 135q-90 37 -90 107q0 85 96 100z" />
    <glyph glyph-name="wgrave" unicode="&#x1e81;" horiz-adv-x="1671" 
d="M684 922v53h508v-53h-92l198 -662l191 662h-141v53h292v-53h-94l-264 -922h-215l-209 639l-221 -639h-209l-322 922h-96v53h553v-53h-100l201 -666l163 477l-53 189h-90zM922 1499l139 -383l-31 -18l-270 227q-55 55 -55 111q0 48 37.5 73.5t82.5 14.5z" />
    <glyph glyph-name="Wacute" unicode="&#x1e82;" horiz-adv-x="2072" 
d="M825 395l205 621l-119 358h-125v60h619v-60h-137l319 -954l268 954h-204v60h413v-60h-133l-395 -1384h-154l-313 915l-299 -915h-147l-502 1384h-113v60h643v-60h-153zM928 1528l266 325l80 -10q96 -15 96 -100q0 -70 -90 -107l-328 -135z" />
    <glyph glyph-name="wacute" unicode="&#x1e83;" horiz-adv-x="1671" 
d="M684 975v-53h90l53 -189l-163 -477l-201 666h100v53h-553v-53h96l322 -922h209l221 639l209 -639h215l264 922h94v53h-292v-53h141l-191 -662l-198 662h92v53h-508zM829 1116l140 383l96 25q45 11 83 -14.5t38 -73.5q0 -55 -56 -111l-270 -227z" />
    <glyph glyph-name="Wdieresis" unicode="&#x1e84;" horiz-adv-x="2072" 
d="M825 395l205 621l-119 358h-125v60h619v-60h-137l319 -954l268 954h-204v60h413v-60h-133l-395 -1384h-154l-313 915l-299 -915h-147l-502 1384h-113v60h643v-60h-153zM1159 1669q0 58 37 98.5t102 40.5t104.5 -35t39.5 -104q0 -65 -37.5 -104t-104.5 -39
q-73 0 -107 41.5t-34 101.5zM752 1669q0 59 37.5 99t103.5 40q65 0 104 -35t39 -104q0 -65 -37 -104t-104 -39q-74 0 -108.5 41.5t-34.5 101.5z" />
    <glyph glyph-name="wdieresis" unicode="&#x1e85;" horiz-adv-x="1671" 
d="M684 922v53h508v-53h-92l198 -662l191 662h-141v53h292v-53h-94l-264 -922h-215l-209 639l-221 -639h-209l-322 922h-96v53h553v-53h-100l201 -666l163 477l-53 189h-90zM999 1296q0 58 37.5 99t102.5 41t104 -35.5t39 -104.5q0 -65 -37 -104t-104 -39q-73 0 -107.5 41.5
t-34.5 101.5zM602 1296q0 59 37.5 99.5t103.5 40.5q65 0 104.5 -35.5t39.5 -104.5q0 -65 -37.5 -104t-104.5 -39q-74 0 -108.5 41.5t-34.5 101.5z" />
    <glyph glyph-name="Ygrave" unicode="&#x1ef2;" horiz-adv-x="1296" 
d="M782 762l291 612h-194v60h407v-60h-141l-320 -672v-643h138v-59h-627v59h137v615l-350 700h-115v60h635v-60h-141zM557 1853l266 -325l-24 -27l-328 135q-90 37 -90 107q0 85 96 100z" />
    <glyph glyph-name="ygrave" unicode="&#x1ef3;" horiz-adv-x="1087" 
d="M12 922v53h563v-53h-120l227 -662l233 662h-131v53h303v-53h-100l-391 -1088q-72 -202 -139 -274t-191 -72q-113 0 -175 53.5t-62 143.5q0 76 42.5 120.5t110.5 44.5q72 0 113 -33t41 -98q0 -29 -12 -73h-72q-14 -25 -14 -49q0 -48 69 -48q73 0 121 73.5t109 250.5
l43 127h-123l-355 922h-90zM532 1499l140 -383l-31 -18l-270 227q-56 56 -56 111q0 48 38 73.5t83 14.5z" />
    <glyph glyph-name="thinspace" unicode="&#x2009;" horiz-adv-x="102" 
 />
    <glyph glyph-name="endash" unicode="&#x2013;" horiz-adv-x="1024" 
d="M0 537v75h1024v-75h-1024z" />
    <glyph glyph-name="emdash" unicode="&#x2014;" horiz-adv-x="2048" 
d="M0 537v75h2048v-75h-2048z" />
    <glyph glyph-name="quoteleft" unicode="&#x2018;" horiz-adv-x="520" 
d="M352 1544l25 -39q-189 -118 -189 -239q0 -29 14.5 -47t35.5 -23l79 74q39 -15 70 -50t31 -87q0 -61 -43.5 -101.5t-108.5 -40.5q-80 0 -127 51t-47 138q0 208 260 364z" />
    <glyph glyph-name="quoteright" unicode="&#x2019;" horiz-adv-x="520" 
d="M158 928l-25 39q189 118 189 239q0 29 -14.5 47t-35.5 23l-79 -74q-39 15 -70 50t-31 87q0 61 43.5 101.5t108.5 40.5q80 0 127 -51t47 -138q0 -208 -260 -364z" />
    <glyph glyph-name="quotesinglbase" unicode="&#x201a;" horiz-adv-x="520" 
d="M168 -299l-25 39q189 118 189 240q0 29 -14 46.5t-35 22.5l-80 -74q-39 15 -70 50.5t-31 87.5q0 61 43.5 101t108.5 40q80 0 127 -50.5t47 -137.5q0 -209 -260 -365z" />
    <glyph glyph-name="quotedblleft" unicode="&#x201c;" horiz-adv-x="892" 
d="M735 1544l25 -39q-189 -118 -189 -239q0 -29 14.5 -47t35.5 -23l79 74q39 -15 70 -50t31 -87q0 -61 -43.5 -101.5t-108.5 -40.5q-80 0 -127 51t-47 138q0 208 260 364zM362 1544l25 -39q-188 -117 -188 -239q0 -29 14 -47t35 -23l80 74q39 -14 69.5 -49.5t30.5 -87.5
q0 -61 -43.5 -101.5t-108.5 -40.5q-80 0 -127 51t-47 138q0 208 260 364z" />
    <glyph glyph-name="quotedblright" unicode="&#x201d;" horiz-adv-x="888" 
d="M537 928l-25 39q188 117 188 239q0 29 -14 47t-35 23l-80 -74q-39 14 -69.5 49.5t-30.5 87.5q0 61 43.5 101.5t108.5 40.5q80 0 127 -51t47 -138q0 -208 -260 -364zM168 928l-25 39q189 118 189 239q0 29 -14 47t-35 23l-80 -74q-39 15 -70 50t-31 87q0 61 43.5 101.5
t108.5 40.5q80 0 127 -51t47 -138q0 -208 -260 -364z" />
    <glyph glyph-name="quotedblbase" unicode="&#x201e;" horiz-adv-x="888" 
d="M537 -299l-25 39q188 117 188 240q0 29 -14 46.5t-35 22.5l-80 -74q-39 14 -69.5 50t-30.5 88q0 61 43.5 101t108.5 40q80 0 127 -50.5t47 -137.5q0 -209 -260 -365zM168 -299l-25 39q189 118 189 240q0 29 -14 46.5t-35 22.5l-80 -74q-39 15 -70 50.5t-31 87.5
q0 61 43.5 101t108.5 40q80 0 127 -50.5t47 -137.5q0 -209 -260 -365z" />
    <glyph glyph-name="dagger" unicode="&#x2020;" horiz-adv-x="1071" 
d="M702 727v-12q-1 -2 -16 -30.5t-19 -36.5t-18 -37.5t-19 -45.5t-16.5 -47.5t-16.5 -57t-11.5 -60t-9 -71.5t-3.5 -77l-10 -498h-53l-8 496q0 53 -4.5 99.5t-14.5 88.5t-17 70.5t-24 65.5t-23 50t-26 49t-22 40v12q47 58 92.5 135.5t54.5 132.5q-51 -3 -157.5 -51.5
t-161.5 -48.5q-52 0 -81.5 36.5t-29.5 88.5q0 50 31 84.5t84 34.5q52 0 155.5 -54.5t161.5 -56.5q-2 42 -21 84.5t-40.5 71.5t-39.5 68t-18 75q0 56 38.5 93.5t109.5 37.5q67 0 100 -37t33 -94q0 -36 -18.5 -74t-41.5 -66.5t-43 -71.5t-22 -87q55 4 158 57.5t159 53.5
q44 0 77.5 -29t33.5 -90q0 -59 -33.5 -92t-79.5 -33q-48 0 -155 48.5t-160 51.5q7 -52 53.5 -132t91.5 -134z" />
    <glyph glyph-name="daggerdbl" unicode="&#x2021;" horiz-adv-x="1132" 
d="M733 791v-13q-83 -90 -131 -178q55 -96 131 -172v-12q-39 -41 -64 -69t-51.5 -67.5t-33.5 -68.5q51 3 158.5 51.5t160.5 48.5t83 -36.5t30 -88.5q0 -49 -31.5 -83.5t-85.5 -34.5q-52 0 -155.5 54t-161.5 56q2 -42 21 -84.5t40.5 -71.5t39 -68t17.5 -75q0 -57 -37 -94
t-110 -37q-65 0 -99 37.5t-34 93.5q0 36 18.5 74t41.5 66.5t43 71.5t22 87q-55 -4 -158 -57t-160 -53q-44 0 -77 28.5t-33 89.5q0 60 33 92.5t79 32.5q48 0 155.5 -48.5t160.5 -51.5q-11 43 -54 101t-92 102v12q77 77 129 176q-47 89 -129 174v12q40 40 65.5 68t51.5 67
t33 70q-51 -3 -158 -51.5t-162 -48.5q-52 0 -82 36.5t-30 88.5q0 50 31.5 84.5t84.5 34.5q52 0 156 -54.5t162 -56.5q-2 42 -21 84.5t-40.5 71.5t-39.5 68t-18 75q0 56 38.5 93.5t109.5 37.5q67 0 100 -37t33 -94q0 -36 -18.5 -74t-41.5 -66.5t-43 -71.5t-22 -87
q55 4 158 57.5t159 53.5q44 0 77.5 -29t33.5 -90q0 -59 -33.5 -92t-79.5 -33q-48 0 -155 48.5t-160 51.5q11 -43 53.5 -100.5t91.5 -101.5z" />
    <glyph glyph-name="bullet" unicode="&#x2022;" horiz-adv-x="786" 
d="M147 655q0 111 66 181.5t188 70.5q116 0 185 -63t69 -187q0 -116 -65.5 -186t-186.5 -70q-69 0 -120.5 21.5t-80 59t-42 80.5t-13.5 93z" />
    <glyph glyph-name="ellipsis" unicode="&#x2026;" horiz-adv-x="1640" 
d="M1196 147q0 75 44.5 123.5t123.5 48.5q80 0 127 -41t47 -124q0 -80 -43.5 -127t-124.5 -47q-90 0 -132 49.5t-42 117.5zM651 147q0 75 44 123.5t124 48.5q79 0 126.5 -41t47.5 -124q0 -80 -44 -127t-126 -47q-89 0 -130.5 49.5t-41.5 117.5zM109 147q0 75 45 123.5
t125 48.5q79 0 126.5 -41t47.5 -124q0 -80 -44 -127t-126 -47q-90 0 -132 49.5t-42 117.5z" />
    <glyph glyph-name="perthousand" unicode="&#x2030;" horiz-adv-x="2174" 
d="M1430 291q0 151 97.5 239t250.5 88q98 0 171 -30.5t119 -102t46 -178.5q0 -105 -50 -181t-126.5 -111t-168.5 -35q-159 0 -249 84.5t-90 226.5zM672 291q0 151 97.5 239t250.5 88q98 0 171 -30.5t119 -102t46 -178.5q0 -156 -100 -241.5t-244 -85.5q-159 0 -249.5 85
t-90.5 226zM70 1128q0 151 97.5 239.5t250.5 88.5q150 0 243 -77t93 -234q0 -105 -49.5 -181t-126 -111.5t-168.5 -35.5q-159 0 -249.5 85t-90.5 226zM295 1130q0 -151 22.5 -210.5t96.5 -59.5q31 0 52 12.5t33 32.5t18.5 58.5t8.5 77t2 100.5q0 156 -21.5 214t-90.5 58
q-75 0 -98 -60.5t-23 -222.5zM203 0l923 1434h82l-921 -1434h-84zM1655 293q0 -151 22.5 -210.5t96.5 -59.5q26 0 44.5 7.5t31 25t20.5 38t12 55.5t5 69t1 85q0 156 -21.5 214t-90.5 58q-75 0 -98 -60t-23 -222zM897 293q0 -151 22.5 -210.5t96.5 -59.5q26 0 44.5 7.5t31 25
t20.5 38t12 55.5t5 69t1 85q0 156 -21.5 214t-90.5 58q-75 0 -98 -60t-23 -222z" />
    <glyph glyph-name="guilsinglleft" unicode="&#x2039;" horiz-adv-x="643" 
d="M123 535l354 290l29 -20l-191 -332l187 -356l-27 -21l-317 275q-60 48 -60 88q0 36 25 76z" />
    <glyph glyph-name="guilsinglright" unicode="&#x203a;" horiz-adv-x="643" 
d="M520 387l-354 -291l-27 21l189 332l-187 354l27 22l317 -274q32 -27 46 -46.5t14 -41.5q0 -36 -25 -76z" />
    <glyph glyph-name="fraction" unicode="&#x2044;" horiz-adv-x="409" 
d="M-285 -20l889 1476h86l-887 -1476h-88z" />
    <glyph glyph-name="zerosuperior" unicode="&#x2070;" horiz-adv-x="851" 
d="M35 1239q0 228 105 335t286 107q183 0 287 -106t104 -336q0 -118 -29 -205.5t-82.5 -138.5t-123 -75.5t-156.5 -24.5q-196 0 -293.5 120.5t-97.5 323.5zM311 1235q0 -239 19.5 -310t95.5 -71q30 0 49.5 10.5t33 33.5t20.5 69.5t9.5 106.5t2.5 157q0 88 -1 141.5
t-5.5 102.5t-12 74t-20.5 44t-31 25t-45 6q-75 0 -95 -75t-20 -314z" />
    <glyph glyph-name="foursuperior" unicode="&#x2074;" horiz-adv-x="790" 
d="M229 807v53h123v154h-344v47l344 606h256v-594h105v80h55v-217h-55v78h-105v-154h88v-53h-467zM82 1073h270v479z" />
    <glyph glyph-name="fivesuperior" unicode="&#x2075;" horiz-adv-x="708" 
d="M281 1284q-71 0 -154 -47l-35 16v398l25 18q77 -12 227.5 -27.5t179.5 -15.5q22 0 34 13t20 42l47 -6q-15 -144 -35 -192.5t-60 -48.5q-16 0 -106 20l-274 72l-5 -226q90 46 183 46q95 0 163.5 -23t104 -63t51 -85t15.5 -98q0 -132 -95.5 -207t-267.5 -75
q-45 0 -87.5 8.5t-86.5 29t-71 63t-27 101.5q0 44 28.5 77.5t83.5 33.5q48 0 80.5 -25.5t32.5 -70.5q0 -31 -10 -54h-41q-8 -21 -8 -43q0 -30 27.5 -45.5t74.5 -15.5q68 0 89.5 55t21.5 178q0 113 -24.5 155t-100.5 42z" />
    <glyph glyph-name="sixsuperior" unicode="&#x2076;" horiz-adv-x="796" 
d="M47 1196q0 231 111 358t311 127q130 0 199 -51.5t69 -124.5q0 -114 -110 -114q-47 0 -76 20.5t-29 61.5q0 31 15 71h36q7 14 7 29q0 51 -95 51q-67 0 -106.5 -31t-61 -109.5t-24.5 -219.5q68 96 209 96q115 0 184.5 -67.5t69.5 -190.5q0 -143 -94.5 -225t-260.5 -82
q-354 0 -354 401zM295 1075q0 -51 1 -77t6.5 -59t16.5 -48t31 -26t51 -11q63 0 87 56t24 163q0 116 -19.5 162.5t-70.5 46.5q-58 0 -92.5 -57.5t-34.5 -149.5z" />
    <glyph glyph-name="sevensuperior" unicode="&#x2077;" horiz-adv-x="624" 
d="M150 934q0 78 52.5 157t237.5 285l88 103h-280q-92 0 -122.5 -22t-45.5 -103h-53l14 313h573v-162l-131 -241q-49 -97 -72.5 -157.5t-27.5 -87t-4 -67.5q0 -81 55 -108l-18 -45q-112 -29 -189 11.5t-77 123.5z" />
    <glyph glyph-name="eightsuperior" unicode="&#x2078;" horiz-adv-x="776" 
d="M311 1260q-121 4 -187.5 57.5t-66.5 138.5q0 104 84 164.5t250 60.5q330 0 330 -217q0 -89 -61.5 -143t-184.5 -61v-5q142 -12 205 -69t63 -156q0 -118 -83.5 -176.5t-268.5 -58.5q-186 0 -272 59t-86 176q0 208 278 225v5zM391 1227q-65 0 -88.5 -45.5t-23.5 -151.5
q0 -93 23.5 -135.5t88.5 -42.5q67 0 91 43t24 137q0 105 -24.5 150t-90.5 45zM303 1464q0 -99 18 -137.5t76 -38.5q50 0 67 39.5t17 136.5q0 80 -19 120t-71 40q-51 0 -69.5 -40.5t-18.5 -119.5z" />
    <glyph glyph-name="ninesuperior" unicode="&#x2079;" horiz-adv-x="802" 
d="M748 1280q0 -231 -111 -358t-311 -127q-133 0 -203 51.5t-70 124.5q0 114 115 114q48 0 80.5 -20.5t32.5 -60.5q0 -32 -15 -72h-37q-6 -12 -6 -29q0 -22 21 -36.5t65 -14.5q67 0 106.5 31t61.5 110t25 219q-68 -96 -209 -96q-115 0 -184.5 67.5t-69.5 190.5
q0 143 94.5 225t259.5 82q355 0 355 -401zM500 1401q0 50 -1 76.5t-6.5 59t-16.5 48t-31.5 26.5t-51.5 11q-63 0 -86.5 -56t-23.5 -163q0 -116 19.5 -162.5t70.5 -46.5q58 0 92.5 57.5t34.5 149.5z" />
    <glyph glyph-name="zeroinferior" unicode="&#x2080;" horiz-adv-x="851" 
d="M35 156q0 228 105 335t286 107q183 0 287 -106t104 -336q0 -231 -105.5 -338t-285.5 -107q-196 0 -293.5 121t-97.5 324zM311 152q0 -239 19.5 -310t95.5 -71q38 0 59.5 15t34.5 60t17 112.5t4 188.5q0 88 -1 142t-5.5 102.5t-12 74t-20.5 44.5t-31 25t-45 6
q-75 0 -95 -75t-20 -314z" />
    <glyph glyph-name="oneinferior" unicode="&#x2081;" horiz-adv-x="587" 
d="M172 522l-133 -18l-8 53l299 41h104v-821h94v-53h-489v53h133v745z" />
    <glyph glyph-name="twoinferior" unicode="&#x2082;" horiz-adv-x="722" 
d="M47 -276v163l119 88q134 99 194 195t60 231q0 73 -26 106.5t-91 33.5q-92 0 -92 -54q0 -15 8 -47h41q10 -20 10 -53q0 -46 -30 -74t-82 -28q-59 0 -90 34t-31 84q0 81 74.5 138t228.5 57q322 0 322 -213q0 -55 -19 -99t-77 -99.5t-144 -116t-240 -158.5h279q83 0 117 39
t49 121h53l-12 -348h-621z" />
    <glyph glyph-name="threeinferior" unicode="&#x2083;" horiz-adv-x="733" 
d="M342 598q307 0 307 -199q0 -80 -66.5 -134t-181.5 -75q145 -12 219 -70.5t74 -152.5q0 -116 -102.5 -186t-276.5 -70q-52 0 -99 9t-92 29.5t-72 61.5t-27 99q0 49 29.5 84t88.5 35q51 0 79 -27.5t28 -69.5q0 -37 -10 -55h-39q-11 -18 -11 -39q0 -28 28 -47.5t79 -19.5
q78 0 109.5 47.5t31.5 144.5q0 82 -27 127t-75 70q-54 -11 -111 -15l-8 56q64 10 95 18.5t56.5 29.5t33.5 55.5t8 94.5q0 142 -107 142q-50 0 -74 -16.5t-24 -43.5q0 -15 8 -51h41q8 -19 8 -51q0 -38 -31 -65t-75 -27q-60 0 -89.5 31t-29.5 85q0 82 77 138.5t228 56.5z" />
    <glyph glyph-name="fourinferior" unicode="&#x2084;" horiz-adv-x="790" 
d="M229 -276v53h123v153h-344v47l344 607h256v-594h105v80h55v-217h-55v77h-105v-153h88v-53h-467zM82 -10h270v479z" />
    <glyph glyph-name="fiveinferior" unicode="&#x2085;" horiz-adv-x="708" 
d="M281 201q-71 0 -154 -47l-35 16v397l25 19q77 -12 227.5 -27.5t179.5 -15.5q22 0 34 13t20 42l47 -6q-15 -144 -35 -193t-60 -49q-13 0 -27.5 2.5t-40 9t-38.5 9.5l-274 71l-5 -225q88 45 183 45t163.5 -23t104 -63t51 -84.5t15.5 -97.5q0 -132 -95.5 -207.5
t-267.5 -75.5q-35 0 -68.5 4.5t-71.5 18.5t-66.5 35.5t-47 59t-18.5 85.5q0 44 28.5 77.5t83.5 33.5q48 0 80.5 -26t32.5 -71q0 -30 -10 -53h-41q-8 -21 -8 -43q0 -30 27.5 -45.5t74.5 -15.5q68 0 89.5 55t21.5 178q0 113 -24.5 155t-100.5 42z" />
    <glyph glyph-name="sixinferior" unicode="&#x2086;" horiz-adv-x="796" 
d="M47 113q0 231 111 358t311 127q130 0 199 -51.5t69 -124.5q0 -115 -110 -115q-47 0 -76 20.5t-29 61.5q0 31 15 72h36q7 14 7 28q0 52 -95 52q-67 0 -106.5 -31t-61 -110t-24.5 -220q68 96 209 96q115 0 184.5 -67.5t69.5 -190.5q0 -143 -94.5 -225t-260.5 -82
q-354 0 -354 402zM295 -8q0 -51 1 -77t6.5 -59t16.5 -48t31 -26t51 -11q63 0 87 56t24 163q0 116 -19.5 162.5t-70.5 46.5q-58 0 -92.5 -57.5t-34.5 -149.5z" />
    <glyph glyph-name="seveninferior" unicode="&#x2087;" horiz-adv-x="624" 
d="M150 -150q0 78 53 157.5t237 285.5l88 102h-280q-92 0 -122.5 -22t-45.5 -103h-53l14 314h573v-162l-131 -242q-70 -140 -87 -196t-17 -115q0 -82 55 -109l-18 -45q-112 -29 -189 11.5t-77 123.5z" />
    <glyph glyph-name="eightinferior" unicode="&#x2088;" horiz-adv-x="776" 
d="M311 176q-121 4 -187.5 58t-66.5 139q0 104 84 164.5t250 60.5q330 0 330 -217q0 -89 -61.5 -143.5t-184.5 -61.5v-4q142 -12 205 -69t63 -156q0 -118 -83.5 -177t-268.5 -59q-186 0 -272 59.5t-86 176.5q0 208 278 225v4zM391 143q-65 0 -88.5 -45t-23.5 -151
q0 -93 23.5 -135.5t88.5 -42.5q67 0 91 43t24 137q0 105 -24.5 149.5t-90.5 44.5zM303 381q0 -99 18 -137.5t76 -38.5q50 0 67 39.5t17 136.5q0 80 -19 120t-71 40q-51 0 -69.5 -40.5t-18.5 -119.5z" />
    <glyph glyph-name="nineinferior" unicode="&#x2089;" horiz-adv-x="802" 
d="M748 197q0 -231 -111 -358.5t-311 -127.5q-133 0 -203 51.5t-70 124.5q0 115 115 115q48 0 80.5 -21t32.5 -61q0 -31 -15 -72h-37q-6 -12 -6 -28q0 -22 21 -36.5t65 -14.5q67 0 106.5 31t61.5 110t25 219q-68 -96 -209 -96q-115 0 -184.5 67.5t-69.5 190.5
q0 143 94.5 225t259.5 82q355 0 355 -401zM500 317q0 42 -0.5 65t-4 52.5t-10 45.5t-18.5 31.5t-30 21.5t-44 6q-63 0 -86.5 -56t-23.5 -164q0 -116 19.5 -162t70.5 -46q58 0 92.5 57t34.5 149z" />
    <glyph glyph-name="Euro" unicode="&#x20ac;" horiz-adv-x="1263" 
d="M797 1397q-70 0 -116.5 -21.5t-81.5 -77.5t-51 -158.5t-16 -260.5h412l-14 -68h-398v-156h369l-14 -67h-355q1 -209 28.5 -328.5t83.5 -169t153 -49.5q81 0 126.5 29t45.5 80q0 26 -11 51h-65q-14 44 -14 82q0 62 45.5 101.5t113.5 39.5q79 0 119.5 -48.5t40.5 -119.5
q0 -117 -111.5 -196.5t-295.5 -79.5q-278 0 -442 149t-187 459h-142l15 67h123v41q0 37 4 115h-107l15 68h98q39 286 201 431.5t419 145.5q182 0 291 -79t109 -197q0 -71 -40.5 -119.5t-119.5 -48.5q-77 0 -119.5 38.5t-42.5 102.5q0 35 15 82h67q10 23 10 51q0 46 -41 78.5
t-120 32.5z" />
    <glyph glyph-name="afii61352" unicode="&#x2116;" horiz-adv-x="2213" 
d="M1341 1153v-1167h-223l-655 1206v-891q0 -172 -59 -246.5t-177 -74.5q-96 0 -149 52t-53 126q0 72 36.5 114.5t104.5 42.5q56 0 88.5 -29t32.5 -77q0 -31 -21 -84h-67q-19 -27 -19 -49q0 -51 60 -51q163 0 163 258v993l-65 113h-125v45h526l541 -1010v711q0 167 65 244
t171 77q96 0 150 -52t54 -126q0 -72 -36 -115t-99 -43q-59 0 -94 29.5t-35 77.5q0 31 21 84h67q19 27 19 49q0 51 -60 51q-69 0 -115.5 -64t-46.5 -194zM1475 655q0 167 95 262t238 95q64 0 119.5 -19.5t101.5 -59t72.5 -107t26.5 -154.5q0 -86 -28.5 -155.5t-76 -112
t-105.5 -65t-120 -22.5q-148 0 -235.5 93t-87.5 245zM1702 657q0 -176 19.5 -240.5t82.5 -64.5q66 0 85.5 68.5t19.5 247.5q0 176 -19 240.5t-80 64.5q-67 0 -87.5 -67t-20.5 -249zM1522 180v51h561v-51h-561z" />
    <glyph glyph-name="trademark" unicode="&#x2122;" horiz-adv-x="1912" 
d="M1497 1327h336v-41h-82v-678h82v-39h-385v39h80v670l-207 -709h-117l-235 705v-666h86v-39h-203v39h66v678h-66v41h344l156 -489zM776 1327l12 -248h-28q-35 110 -84.5 163.5t-102.5 53.5h-4v-684h105v-43h-438v43h106v684h-4q-47 0 -99.5 -53.5t-84.5 -163.5h-33l14 248
h641z" />
    <glyph glyph-name="Omega" unicode="&#x2126;" horiz-adv-x="1765" 
d="M987 0v215q56 47 83.5 75t57 72t41.5 96.5t19.5 131.5t7.5 194q0 74 -1.5 126.5t-8 121t-18 115.5t-32.5 97t-51 80t-74.5 49.5t-101.5 19.5q-60 0 -107 -18t-78.5 -47t-54.5 -76t-36 -94t-20 -114t-9 -122t-2 -131q0 -147 8 -240.5t29.5 -156t45 -97t69.5 -80.5v-217
h-627l-25 541h35q14 -75 34 -124.5t49 -85t73 -54.5t100.5 -27t138.5 -8h140q-116 52 -197.5 106.5t-143.5 124t-92 158t-30 198.5q0 286 184 456.5t512 170.5q326 0 501 -160t175 -448q0 -70 -18.5 -135.5t-45 -114.5t-73 -98.5t-83.5 -81t-97.5 -70t-94 -57t-92.5 -49.5
h160q82 0 138.5 8t100.5 27t73 54.5t49 85t34 124.5h31l-25 -541h-651z" />
    <glyph glyph-name="onethird" unicode="&#x2153;" horiz-adv-x="1843" 
d="M250 1360l-133 -19l-8 54l299 41h104v-822h94v-53h-489v53h133v746zM362 -20l889 1476h86l-886 -1476h-89zM1382 874q308 0 308 -198q0 -80 -66.5 -134t-181.5 -75q145 -12 219 -70.5t74 -152.5q0 -116 -102.5 -186t-276.5 -70q-52 0 -99 8.5t-92.5 29t-72.5 61.5t-27 99
q0 49 30 84t89 35q51 0 78.5 -27t27.5 -69q0 -37 -10 -55h-39q-10 -17 -10 -39q0 -28 27.5 -48t78.5 -20q78 0 110 48t32 145q0 82 -27.5 126.5t-75.5 69.5q-46 -9 -110 -14l-9 55q63 10 94.5 19t57 30t33.5 55.5t8 94.5q0 141 -107 141q-50 0 -74 -16t-24 -43q0 -15 8 -51
h41q9 -21 9 -52q0 -38 -31.5 -65t-75.5 -27q-60 0 -89.5 31t-29.5 86q0 82 76.5 138t228.5 56z" />
    <glyph glyph-name="twothirds" unicode="&#x2154;" horiz-adv-x="1843" 
d="M98 561v164l119 88q134 99 194 195t60 231q0 73 -26 106t-91 33q-92 0 -92 -53q0 -15 8 -47h41q11 -22 11 -53q0 -46 -30.5 -74.5t-82.5 -28.5q-59 0 -90 34.5t-31 84.5q0 81 74.5 138t228.5 57q322 0 322 -213q0 -55 -19 -99t-77 -99.5t-144 -116t-240 -158.5h279
q83 0 117 38.5t49 120.5h53l-12 -348h-621zM422 -20l889 1476h86l-887 -1476h-88zM1403 874q161 0 234 -51t73 -147q0 -80 -66.5 -134t-181.5 -75q145 -12 219 -70.5t74 -152.5q0 -116 -102.5 -186t-276.5 -70q-52 0 -99 8.5t-92.5 29t-72.5 61.5t-27 99q0 49 30 84t89 35
q51 0 79 -27t28 -69q0 -36 -11 -55h-38q-11 -18 -11 -39q0 -28 28 -48t79 -20q78 0 109.5 47.5t31.5 145.5q0 82 -27 126.5t-75 69.5q-45 -9 -111 -14l-8 55q63 10 94.5 19t56.5 30t33 55.5t8 94.5q0 141 -106 141q-50 0 -74 -16t-24 -43q0 -15 8 -51h41q8 -19 8 -52
q0 -38 -31 -65t-75 -27q-60 0 -89.5 31t-29.5 86q0 82 76.5 138t228.5 56z" />
    <glyph glyph-name="oneeighth" unicode="&#x215b;" horiz-adv-x="1843" 
d="M260 1360l-133 -19l-8 54l299 41h104v-822h94v-53h-489v53h133v746zM379 -20l889 1476h86l-887 -1476h-88zM1290 453q-121 4 -187.5 57.5t-66.5 138.5q0 104 84 164.5t250 60.5q330 0 330 -217q0 -89 -61.5 -143t-184.5 -61v-4q142 -12 205 -69.5t63 -156.5
q0 -118 -83.5 -176.5t-268.5 -58.5q-186 0 -272 59t-86 176q0 209 278 226v4zM1370 420q-65 0 -89 -45.5t-24 -151.5q0 -93 24 -135.5t89 -42.5q67 0 91 43t24 137q0 105 -24.5 150t-90.5 45zM1282 657q0 -99 18 -137.5t76 -38.5q50 0 67 39.5t17 136.5q0 80 -19 120t-71 40
q-51 0 -69.5 -40.5t-18.5 -119.5z" />
    <glyph glyph-name="threeeighths" unicode="&#x215c;" horiz-adv-x="1843" 
d="M395 1436q307 0 307 -199q0 -80 -66 -134t-181 -75q145 -12 219 -70.5t74 -152.5q0 -116 -102.5 -186t-276.5 -70q-52 0 -99 9t-92.5 29.5t-72.5 61.5t-27 99q0 49 30 83.5t89 34.5q51 0 78.5 -27t27.5 -69q0 -38 -10 -55h-39q-10 -17 -10 -39q0 -28 27.5 -48t78.5 -20
q78 0 110 48t32 145q0 82 -27.5 126.5t-75.5 69.5q-46 -9 -110 -14l-9 55q63 10 94.5 19t57 30t33.5 55.5t8 94.5q0 141 -107 141q-50 0 -74 -16t-24 -43q0 -15 8 -51h41q8 -19 8 -51q0 -38 -31 -65.5t-75 -27.5q-60 0 -89.5 31t-29.5 86q0 82 77 138.5t228 56.5zM418 -20
l889 1476h86l-887 -1476h-88zM1331 453q-121 4 -187.5 57.5t-66.5 138.5q0 104 84 164.5t250 60.5q330 0 330 -217q0 -89 -61.5 -143t-184.5 -61v-4q142 -12 205 -69.5t63 -156.5q0 -118 -83.5 -176.5t-268.5 -58.5q-186 0 -272 59t-86 176q0 209 278 226v4zM1411 420
q-65 0 -89 -45.5t-24 -151.5q0 -93 24 -135.5t89 -42.5q67 0 91 43t24 137q0 105 -24.5 150t-90.5 45zM1323 657q0 -99 18 -137.5t76 -38.5q50 0 67 39.5t17 136.5q0 80 -19 120t-71 40q-51 0 -69.5 -40.5t-18.5 -119.5z" />
    <glyph glyph-name="fiveeighths" unicode="&#x215d;" horiz-adv-x="1843" 
d="M342 1038q-71 0 -154 -47l-34 17v397l24 18q77 -12 228 -27.5t180 -15.5q22 0 33.5 13t19.5 43l47 -6q-15 -145 -34.5 -193.5t-59.5 -48.5q-17 0 -107 20l-274 72l-4 -225q88 45 182 45q95 0 163.5 -23t104 -63t51 -85t15.5 -98q0 -131 -95.5 -206.5t-267.5 -75.5
q-35 0 -68.5 4.5t-71.5 18.5t-66.5 35.5t-47 59t-18.5 85.5q0 43 28.5 76.5t84.5 33.5q48 0 80 -25.5t32 -70.5q0 -30 -10 -53h-41q-8 -21 -8 -43q0 -30 27.5 -46t74.5 -16q68 0 89.5 55t21.5 179q0 113 -24.5 154.5t-100.5 41.5zM399 -20l889 1476h86l-887 -1476h-88z
M1323 453q-121 4 -187.5 57.5t-66.5 138.5q0 104 84 164.5t250 60.5q330 0 330 -217q0 -89 -61.5 -143t-184.5 -61v-4q142 -12 205 -69.5t63 -156.5q0 -118 -83.5 -176.5t-268.5 -58.5q-186 0 -272.5 59t-86.5 176q0 209 279 226v4zM1403 420q-65 0 -89 -45.5t-24 -151.5
q0 -93 24 -135.5t89 -42.5q67 0 91 43t24 137q0 105 -24.5 150t-90.5 45zM1315 657q0 -99 18 -137.5t76 -38.5q50 0 67 39.5t17 136.5q0 80 -19 120t-71 40q-51 0 -69.5 -40.5t-18.5 -119.5z" />
    <glyph glyph-name="seveneighths" unicode="&#x215e;" horiz-adv-x="1843" 
d="M219 688q0 77 53 156t238 286l88 103h-281q-92 0 -122 -22t-45 -103h-54l15 313h573v-161l-131 -242q-70 -140 -87 -196t-17 -115q0 -82 55 -109l-19 -45q-112 -29 -189 11.5t-77 123.5zM344 -20l889 1476h86l-887 -1476h-88zM1315 453q-121 4 -187.5 57.5t-66.5 138.5
q0 104 84 164.5t250 60.5q329 0 329 -217q0 -89 -61 -143t-184 -61v-4q142 -12 205 -69.5t63 -156.5q0 -118 -83.5 -176.5t-268.5 -58.5q-186 0 -272.5 59t-86.5 176q0 209 279 226v4zM1395 420q-65 0 -89 -45.5t-24 -151.5q0 -93 24 -135.5t89 -42.5q67 0 90.5 43t23.5 137
q0 105 -24.5 150t-89.5 45zM1307 657q0 -99 18 -137.5t76 -38.5q50 0 67 39.5t17 136.5q0 80 -19 120t-71 40q-51 0 -69.5 -40.5t-18.5 -119.5z" />
    <glyph glyph-name="partialdiff" unicode="&#x2202;" horiz-adv-x="1224" 
d="M621 1374q84 0 160.5 -21.5t143 -67.5t115.5 -112t77 -161t28 -209q0 -122 -24.5 -238.5t-77 -223.5t-128 -187.5t-185.5 -128.5t-241 -48q-211 0 -321.5 104t-110.5 298q0 91 26.5 171.5t80 147.5t144 106.5t208.5 39.5q107 0 183 -45t102 -140q30 164 30 285
q0 189 -63.5 282t-179.5 93q-76 0 -108.5 -42.5t3.5 -107.5h41q15 -47 15 -79q0 -59 -42 -96.5t-106 -37.5q-73 0 -115.5 47.5t-42.5 112.5q0 115 99 186.5t289 71.5zM616 758q-55 0 -96.5 -39.5t-63.5 -95.5t-36 -132t-17.5 -133.5t-3.5 -115.5q0 -101 25.5 -150t91.5 -49
t117 70t78.5 190.5t27.5 269.5q0 81 -30 133t-93 52z" />
    <glyph glyph-name="Delta" unicode="&#x2206;" horiz-adv-x="1280" 
d="M1280 0h-1280l580 1466h168zM489 1083l-393 -991h719z" />
    <glyph glyph-name="product" unicode="&#x220f;" horiz-adv-x="1650" 
d="M61 1434h1528v-60h-162v-1624h162v-59h-682v59h121v1624h-407v-1624h120v-59h-680v59h162v1622h-162v62z" />
    <glyph glyph-name="summation" unicode="&#x2211;" horiz-adv-x="1341" 
d="M1233 -309h-1227l-20 37l637 731l-641 946l20 29h1176l16 -385h-49q-40 190 -119.5 257.5t-269.5 67.5h-336l487 -710l-614 -689h471q96 0 161.5 12t112 35.5t76.5 69t48.5 102.5t33.5 146h53z" />
    <glyph glyph-name="minus" unicode="&#x2212;" 
d="M1028 610h-930v74h930v-74z" />
    <glyph glyph-name="uni2215" unicode="&#x2215;" horiz-adv-x="409" 
d="M-285 -20l889 1476h86l-887 -1476h-88z" />
    <glyph glyph-name="uni2219" unicode="&#x2219;" horiz-adv-x="614" 
d="M137 655q0 75 45 123.5t125 48.5q79 0 126.5 -41t47.5 -124q0 -79 -44.5 -127t-125.5 -48q-90 0 -132 50t-42 118z" />
    <glyph glyph-name="radical" unicode="&#x221a;" horiz-adv-x="1120" 
d="M1092 1524l-344 -1524h-144l-364 774l-146 -67l-24 59l329 162l326 -731l301 1341z" />
    <glyph glyph-name="infinity" unicode="&#x221e;" horiz-adv-x="1318" 
d="M1217 504q0 -124 -73 -193t-173 -69q-86 0 -166.5 41.5t-173.5 132.5q-139 -174 -295 -174q-106 0 -170 67.5t-64 177.5q0 65 24.5 118t64.5 84.5t87.5 48t96.5 16.5q70 0 142 -36.5t167 -129.5q133 153 297 153q104 0 170 -61.5t66 -175.5zM1135 508q0 70 -42 120
t-120 50q-62 0 -129.5 -35t-122.5 -100q95 -102 145 -138t117 -36t109.5 34.5t42.5 104.5zM350 305q124 0 242 154q-104 97 -154.5 132.5t-103.5 35.5q-66 0 -112 -42t-46 -112q0 -74 49 -121t125 -47z" />
    <glyph glyph-name="integral" unicode="&#x222b;" horiz-adv-x="972" 
d="M530 1223q0 -84 12 -175t35.5 -217.5t32.5 -183.5q5 -30 27 -157.5t33.5 -221.5t11.5 -174q0 -83 -17 -159t-53.5 -143.5t-90 -117t-132 -78t-174.5 -28.5q-115 0 -204 65.5t-89 169.5q0 82 48 132.5t132 50.5q83 0 121 -57.5t8 -139.5l-81 -8q-33 -51 -12.5 -97
t83.5 -46q83 0 120.5 55.5t37.5 200.5q0 80 -13 181t-37.5 243t-33.5 208q-4 26 -23 133t-31 198.5t-12 158.5q0 102 30.5 190t88 155t149.5 105.5t208 38.5q74 0 141.5 -28t112.5 -83t45 -124q0 -80 -44 -128t-122 -48q-82 0 -124 55.5t-20 138.5l82 6q17 42 17 76
q0 76 -109 76q-75 0 -114.5 -52.5t-39.5 -170.5z" />
    <glyph glyph-name="approxequal" unicode="&#x2248;" 
d="M815 240q-78 0 -257.5 54t-246.5 54q-54 0 -91 -26t-75 -86l-57 32q44 74 96 114t125 40q76 0 254.5 -55.5t247.5 -55.5q54 0 93 24.5t73 86.5l59 -33q-76 -149 -221 -149zM815 588q-78 0 -257.5 54t-246.5 54q-54 0 -91 -26t-75 -86l-57 32q44 74 96 114t125 40
q76 0 254.5 -55.5t247.5 -55.5q54 0 93 24.5t73 86.5l59 -33q-76 -149 -221 -149z" />
    <glyph glyph-name="notequal" unicode="&#x2260;" 
d="M1028 383h-586l-223 -262l-49 45l182 217h-254v74h318l207 245h-525v74h586l178 211l56 -45l-142 -166h252v-74h-315l-209 -245h524v-74z" />
    <glyph glyph-name="lessequal" unicode="&#x2264;" 
d="M1028 0h-930v74h930v-74zM1026 176l-926 395v58l926 389v-78l-813 -338l813 -344v-82z" />
    <glyph glyph-name="greaterequal" unicode="&#x2265;" 
d="M1028 0h-930v74h930v-74zM1026 571l-926 -395v82l813 344l-813 338v78l926 -389v-58z" />
    <glyph glyph-name="triangle" unicode="&#x25b3;" horiz-adv-x="870" 
d="M307 416v473l379 -234z" />
    <glyph glyph-name="lozenge" unicode="&#x25ca;" 
d="M977 635l-414 -660l-416 660l416 659zM895 633l-332 538l-338 -532l342 -543z" />
    <glyph glyph-name="circle" unicode="&#x25cb;" horiz-adv-x="1249" 
d="M205 602q0 173 123.5 296.5t296.5 123.5t296 -123.5t123 -296.5t-123 -296.5t-296 -123.5t-296.5 123.5t-123.5 296.5z" />
    <glyph glyph-name="zero.alt" unicode="&#xf800;" horiz-adv-x="1310" 
d="M504 1153q0 109 77 168t187 59q92 0 174.5 -42t148 -122t104 -208.5t38.5 -288.5q0 -157 -30 -283t-82 -210.5t-125.5 -140.5t-156 -80.5t-177.5 -24.5q-302 0 -446 187t-144 552q0 290 125.5 477t365.5 256l10 -43q-247 -90 -247 -283q0 -134 110 -223v-178
q0 -111 1 -186t5 -149t10.5 -120t18 -89t27 -66t38.5 -41t51 -24.5t66 -6.5q41 0 72 13t53.5 35t37.5 66t24.5 90.5t14 125t6 153t1.5 189.5q0 309 -7 393q-15 185 -81 210q-12 5 -26 5q-50 0 -69 -34.5t5 -86.5l74 -6q6 -34 6 -59q0 -63 -37 -93t-90 -30q-58 0 -95.5 35.5
t-37.5 103.5z" />
    <glyph glyph-name="one.alt" unicode="&#xf801;" horiz-adv-x="974" 
d="M424 59v1024q-41 -82 -145.5 -170.5t-188.5 -121.5l-18 59q292 146 493 606h211v-1397h172v-59h-743v59h219z" />
    <glyph glyph-name="two.alt" unicode="&#xf802;" horiz-adv-x="1130" 
d="M471 1393q-79 0 -124.5 -38.5t-45.5 -109.5q0 -31 12 -61h80q16 -33 19.5 -66.5t-6 -63t-30 -52.5t-55.5 -36.5t-79 -13.5q-71 0 -118.5 48t-47.5 128q0 86 38.5 151t108 103t156 56t190.5 18q222 0 335.5 -97.5t113.5 -256.5q0 -158 -92 -274t-314 -222q-46 -22 -65 -31
t-60 -29.5t-60 -31.5t-53.5 -30.5t-52.5 -33.5t-44.5 -34t-42.5 -38.5t-34.5 -41t-31.5 -46.5t-23 -50q107 73 187 110t151 37q59 0 118.5 -24t99.5 -53t90.5 -53t93.5 -24q51 0 74 40t28 128h60q0 -125 -28 -223.5t-85.5 -157.5t-136.5 -59q-64 0 -123.5 28.5t-104.5 68.5
t-87 80.5t-86.5 69t-86.5 28.5q-52 0 -116 -31q59 -7 88.5 -46t29.5 -77q0 -41 -30.5 -71.5t-83.5 -30.5q-63 0 -103.5 44t-40.5 128q0 219 359 448q157 100 214.5 208.5t57.5 260.5q0 168 -49.5 246t-163.5 78z" />
    <glyph glyph-name="three.alt" unicode="&#xf803;" horiz-adv-x="1138" 
d="M1001 1434v-181l-514 -473q101 29 183 29q192 0 297.5 -105t105.5 -280q0 -199 -158 -321.5t-426 -122.5q-79 0 -152.5 17.5t-137.5 52.5t-103 97.5t-39 143.5t44 132.5t128 51.5q71 0 115.5 -39.5t44.5 -105.5q0 -48 -16 -94h-64q-10 -33 -10 -60q0 -53 42.5 -94
t141.5 -41q129 0 181.5 90.5t52.5 269.5q0 328 -230 328q-49 0 -90 -12l-10 39l428 403h-381q-77 0 -117 -6t-69 -31t-41.5 -61t-26.5 -109h-41l21 482h841z" />
    <glyph glyph-name="four.alt" unicode="&#xf804;" horiz-adv-x="1202" 
d="M115 379h471v346l321 74v-420h238v-55h-240v-279h156v-45h-662v45h181v279h-523v55q135 180 233 329t150.5 245t82 177t37 124t7.5 87q0 67 -24 111l26 39q139 24 217 -26t78 -144q0 -87 -62.5 -179.5t-238.5 -283.5q-7 -7 -153 -162.5t-295 -316.5z" />
    <glyph glyph-name="five.alt" unicode="&#xf805;" horiz-adv-x="1105" 
d="M485 782q-97 0 -239 -69q-39 -82 -105 -82q-45 0 -45 45q0 27 29.5 52.5t62.5 31.5l29 561q-39 49 -39 104q0 23 16.5 40.5t43.5 17.5q40 0 60.5 -46t12.5 -108l2 -4q58 -74 163.5 -122t197.5 -48q42 0 63.5 17.5t21 43t-19.5 52.5h-71q-23 38 -25 81t15 79t57.5 59.5
t97.5 23.5q81 0 133.5 -52t52.5 -142q0 -115 -77.5 -177.5t-196.5 -62.5q-125 0 -252 58t-184 125l-37 -484q145 76 309 76q121 0 215 -32t151.5 -88t87 -129t29.5 -159q0 -216 -157.5 -340t-427.5 -124q-108 0 -198.5 34t-147 101t-56.5 155q0 92 47.5 147.5t128.5 55.5
q57 0 96 -23.5t54 -60t14.5 -79t-16.5 -83.5h-76q-32 -78 7 -131t139 -53q130 0 178.5 94t48.5 299q0 178 -41 262t-152 84z" />
    <glyph glyph-name="six.alt" unicode="&#xf806;" horiz-adv-x="1224" 
d="M467 655q0 101 80 156t203 55q86 0 158.5 -20.5t134 -64.5t96.5 -123.5t35 -188.5q0 -220 -149.5 -354.5t-385.5 -134.5q-129 0 -229.5 37.5t-174.5 114.5t-113.5 203t-39.5 296q0 200 50 358t140 259.5t212.5 154.5t269.5 53q70 0 135 -16t121.5 -48.5t90.5 -90
t34 -132.5q0 -81 -49.5 -126.5t-122.5 -45.5q-79 0 -121.5 39.5t-42.5 104.5q0 41 18 90h74q26 76 -11.5 120t-123.5 44q-64 0 -115.5 -26t-86 -68t-60 -105t-39.5 -125.5t-22 -142t-10.5 -142t-2.5 -137.5q0 -229 22 -360t69 -188.5t128 -57.5q55 0 91 26t55.5 81t26.5 123
t7 169q0 52 -1 88t-4.5 83.5t-11.5 78.5t-20.5 60.5t-33.5 44t-48 14.5q-48 0 -61.5 -33t16.5 -67l72 -9q21 -77 -9 -134.5t-112 -57.5q-59 0 -99 37.5t-40 107.5z" />
    <glyph glyph-name="seven.alt" unicode="&#xf807;" horiz-adv-x="991" 
d="M219 1524l57 -6q-16 -96 -67 -199l6 -4q112 129 227 129q43 0 80 -16t62 -38.5t47.5 -45t47.5 -38.5t52 -16q55 0 108.5 35t86.5 105l49 -9q2 -18 2 -61q0 -110 -21.5 -190.5t-64 -152t-133.5 -192.5q-99 -131 -146 -273t-47 -273q0 -141 74 -244l-35 -51
q-86 -13 -155 1.5t-110.5 49t-63 79.5t-21.5 95q0 69 22.5 127.5t113 181.5t278.5 338q78 90 128.5 162.5t71.5 126.5t27 83.5t8 67.5l-8 2q-167 -202 -299 -202q-60 0 -129.5 25t-127 50t-87.5 25q-43 0 -75 -39.5t-101 -159.5l-51 31q125 202 194 496z" />
    <glyph glyph-name="eight.alt" unicode="&#xf808;" horiz-adv-x="1114" 
d="M553 43q119 0 182.5 68.5t63.5 181.5q0 31 -4 57t-16 49t-22.5 40.5t-35 37.5t-41.5 32.5t-54.5 33t-61 32.5t-72.5 37l-95 47q-53 -37 -81.5 -101t-28.5 -187q0 -166 73 -247t193 -81zM596 1393q-122 0 -187 -57.5t-65 -159.5q0 -55 25 -102.5t67.5 -83.5t97 -68.5
t115.5 -62t121.5 -60.5t115 -68t97 -79t67.5 -99.5t25 -124.5q0 -191 -151 -319.5t-387 -128.5q-243 0 -374.5 99t-131.5 281q0 140 79.5 217.5t223.5 114.5q-246 145 -246 365q0 179 133 289t361 110q189 0 305.5 -86t116.5 -235q0 -112 -50.5 -166t-126.5 -54
q-75 0 -115 40t-40 102q0 48 28 102l109 -18q31 48 31 88q0 74 -68 119t-176 45z" />
    <glyph glyph-name="nine.alt" unicode="&#xf809;" horiz-adv-x="1224" 
d="M760 774q0 -101 -80 -156t-203 -55q-85 0 -158 21.5t-134.5 67t-96.5 126t-35 189.5q0 220 149.5 354.5t385.5 134.5q129 0 229.5 -37.5t174.5 -114.5t113.5 -203t39.5 -296q0 -200 -50 -358t-140 -259.5t-212.5 -154.5t-269.5 -53q-71 0 -135.5 14.5t-121 44.5t-90.5 86
t-34 131q0 82 50 129t122 47q80 0 122 -39t42 -104q0 -41 -18 -90h-74q-26 -75 11.5 -116.5t123.5 -41.5q64 0 115.5 26t86 67.5t60 105t39.5 125.5t22 141.5t10.5 142t2.5 137.5q0 229 -22 360t-69 189t-128 58q-55 0 -91 -26t-55.5 -81.5t-26.5 -123.5t-7 -169
q0 -53 1 -88.5t4.5 -84t11.5 -80.5t20.5 -62t33 -45t47.5 -15q48 0 61.5 33.5t-16.5 67.5l-71 6q-21 78 9 136.5t112 58.5q59 0 99 -38t40 -108z" />
    <glyph glyph-name="zero.tosf" unicode="&#xf81e;" 
d="M35 508q0 146 40 255.5t113.5 176t169.5 99t215 32.5q116 0 207 -28.5t163 -90t110.5 -168.5t38.5 -254q0 -143 -42 -251t-116 -172t-168 -95.5t-207 -31.5q-266 0 -395 138.5t-129 389.5zM385 524q0 -73 1 -122t5 -104.5t12 -90t21 -69t32.5 -53.5t47 -30.5t63.5 -11.5
q43 0 74 13t50 47.5t30 64.5t15.5 96.5t5.5 108.5t1 132v27q0 89 -2 150t-8.5 119t-18 93.5t-30.5 63.5t-46.5 40t-64.5 12q-57 0 -94 -28.5t-57.5 -92t-28.5 -149t-8 -216.5z" />
    <glyph glyph-name="one.tosf" unicode="&#xf81f;" 
d="M420 954l-232 -26l-8 59l451 62h141v-990h215v-59h-807v59h240v895z" />
    <glyph glyph-name="two.tosf" unicode="&#xf820;" 
d="M637 768q0 37 -3 66t-13.5 63t-29 56.5t-52 37.5t-78.5 15q-75 0 -110.5 -36t-35.5 -96q0 -30 13 -63h59q16 -40 16 -88q0 -62 -45.5 -99.5t-115.5 -37.5q-79 0 -120.5 48t-41.5 122q0 81 41 144t109.5 99t147 54t163.5 18q112 0 195.5 -25.5t131 -69t70.5 -96.5t23 -114
q0 -56 -13.5 -102t-47 -88t-75.5 -76t-114.5 -73t-147.5 -73t-190 -82l4 -10h371q85 0 133.5 22t73 68t40.5 133h52l-17 -485h-889v199q245 141 370.5 285.5t125.5 283.5z" />
    <glyph glyph-name="three.tosf" unicode="&#xf821;" 
d="M551 1071q448 0 448 -299q0 -256 -397 -338q251 -17 360 -102t109 -252q0 -185 -161 -296.5t-423 -111.5q-63 0 -121.5 9t-116 31t-100 55.5t-68.5 87t-26 120.5q0 80 46.5 131.5t129.5 51.5q71 0 113.5 -39t42.5 -105q0 -48 -16 -94h-64q-10 -42 -10 -67
q0 -54 48.5 -85.5t123.5 -31.5q129 0 187.5 87t58.5 253q0 74 -13 129t-39.5 91.5t-56.5 59.5t-74 43q-88 -19 -184 -28l-8 63q179 19 248 82.5t69 224.5q0 137 -40.5 203t-133.5 66q-69 0 -112 -36.5t-43 -88.5q0 -29 10 -62h61q17 -46 17 -90q0 -65 -46 -105t-116 -40
q-81 0 -122.5 49.5t-41.5 126.5q0 139 122 223t339 84z" />
    <glyph glyph-name="four.tosf" unicode="&#xf822;" 
d="M891 -307h-336v409h-541v52l561 895h316v-879h164v160h57v-379h-57v151h-164v-409zM104 170h451v721z" />
    <glyph glyph-name="five.tosf" unicode="&#xf823;" 
d="M504 481q-138 0 -281 -88l-39 19l64 612l33 25h569q40 0 58.5 19t31.5 67l45 -7q-8 -87 -17 -141.5t-25 -102t-40.5 -71.5t-61 -37.5t-89.5 -13.5h-453l-39 -285q142 74 295 74q138 0 238.5 -33t156 -92t80.5 -128.5t25 -154.5q0 -219 -153.5 -345t-412.5 -126
q-58 0 -113.5 9t-111.5 31.5t-98 57t-68 89.5t-26 125q0 77 44 128.5t126 51.5q71 0 116 -41.5t45 -108.5q0 -49 -16 -92h-61q-13 -37 -13 -63q0 -56 42.5 -89.5t127.5 -33.5q50 0 86.5 18.5t59 51.5t36 87t18.5 117t5 150q0 179 -41 250t-143 71z" />
    <glyph glyph-name="six.tosf" unicode="&#xf824;" 
d="M426 584q-16 -67 -16 -158q0 -57 0.5 -92.5t4 -81t9.5 -72.5t17 -56.5t27.5 -45t40 -25.5t54.5 -10q36 0 63 11.5t44.5 36.5t28.5 55t16.5 77t7.5 91.5t2 109.5q0 192 -27 263t-104 71q-121 0 -168 -174zM664 1290q-76 0 -125.5 -30.5t-79.5 -104t-42 -185t-11 -284.5
q89 152 278 152q81 0 149 -21.5t124.5 -67t88 -125.5t31.5 -188q0 -202 -139 -329t-381 -127q-508 0 -508 604q0 190 45 338t126 242t190 142t241 48q171 0 279 -70t108 -201q0 -81 -44.5 -124.5t-116.5 -43.5q-70 0 -114 42t-44 122q0 31 10 76h80q22 69 -19 102t-126 33z
" />
    <glyph glyph-name="seven.tosf" unicode="&#xf825;" 
d="M293 -109q0 97 69.5 201.5t319.5 390.5l254 291h-504q-51 0 -84 -2.5t-61 -11.5t-44.5 -22t-30.5 -38t-22.5 -55t-17.5 -78h-49l20 482h926v-183l-182 -319q-129 -226 -186 -339.5t-75 -174.5t-18 -129q0 -90 66 -185l-25 -38q-156 -28 -256 30t-100 180z" />
    <glyph glyph-name="eight.tosf" unicode="&#xf826;" 
d="M463 690q-185 4 -284 88t-99 219q0 164 124.5 260.5t364.5 96.5q480 0 480 -336q0 -137 -102.5 -227.5t-278.5 -100.5v-6q226 -18 326 -100.5t100 -237.5q0 -180 -137 -273t-388 -93q-271 0 -404.5 87t-133.5 277q0 153 119.5 241t312.5 99v6zM573 653q-95 0 -141.5 -74
t-46.5 -229q0 -156 42 -230.5t142 -74.5q97 0 140 73t43 234q0 158 -43.5 229.5t-135.5 71.5zM422 1014q0 -152 34 -219.5t113 -67.5q80 0 113 68t33 223q0 143 -31 206.5t-109 63.5q-153 0 -153 -274z" />
    <glyph glyph-name="nine.tosf" unicode="&#xf827;" 
d="M700 463q17 72 17 162q0 57 -1 93t-4 80.5t-9 72t-17.5 56.5t-27.5 45t-40 26t-55 10q-36 0 -63 -11.5t-44.5 -36.5t-28.5 -55t-16.5 -77t-7.5 -91.5t-2 -109.5q0 -192 27 -265t104 -73q121 0 168 174zM463 -264q66 0 112.5 25t76 72t45.5 125.5t21.5 172.5t2.5 227
q-87 -149 -279 -149q-87 0 -156 22t-123.5 68t-84 126t-29.5 189q0 211 137.5 334t382.5 123q90 0 164 -19t139.5 -66t109.5 -120t69.5 -186.5t25.5 -261.5q0 -191 -45 -335.5t-127.5 -233.5t-193 -133t-248.5 -44q-106 0 -192.5 28t-142.5 87.5t-56 142.5q0 87 48.5 133
t121.5 46q68 0 108.5 -41.5t40.5 -122.5q0 -31 -10 -76h-80q-22 -69 22.5 -101t139.5 -32z" />
    <glyph glyph-name="s_t" unicode="&#xfb06;" horiz-adv-x="1667" 
d="M999 274v648h-122v53h122v266q-34 11 -72 39.5t-72 60t-71 62t-81.5 50.5t-90.5 20q-90 0 -138 -53.5t-48 -143.5q0 -91 70.5 -189t132.5 -133q40 -20 63 -20q20 0 30.5 14t16.5 51h41v-311h-43q-47 128 -121 189t-180 61q-94 0 -143 -31.5t-49 -87.5q0 -27 12.5 -48.5
t30 -35t51.5 -27t59.5 -20.5t72.5 -19q6 -1 9.5 -2t9 -2.5t9.5 -2.5q42 -11 70.5 -19.5t67.5 -23.5t65 -31.5t54.5 -42.5t45.5 -57t28 -73.5t11 -92.5q0 -164 -100.5 -253t-276.5 -89q-133 0 -252 61q-24 16 -37 16q-19 0 -32.5 -16.5t-28.5 -60.5h-43v360h45
q44 -162 129 -229.5t217 -67.5q108 0 159.5 36.5t51.5 96.5q0 29 -12.5 51t-26.5 35.5t-53 28.5t-60.5 21t-80.5 21q-4 1 -6.5 1.5t-6 1.5t-6.5 2q-61 15 -100.5 27.5t-91 38.5t-81.5 57t-51.5 82t-21.5 116q0 150 97.5 243t258.5 93q42 0 76 -6q-144 156 -144 287
q0 110 69 183t181 73q54 0 104.5 -19.5t89.5 -49.5t72.5 -60.5t67.5 -59.5t60 -40q30 129 117 192.5t218 63.5q213 0 213 -152q0 -84 -62 -133t-157 -51v-248h271v-53h-271v-670q0 -93 22 -135.5t79 -42.5q68 0 111 57t57 162l49 -6q-7 -66 -25 -116.5t-53.5 -96t-98 -70
t-149.5 -24.5q-76 0 -132 13t-102.5 45t-70 91t-23.5 145zM1335 1405v-125q66 2 108 37t42 98q0 42 -21.5 64t-52.5 22q-39 0 -57.5 -28t-18.5 -68z" />
    <glyph glyph-name="question.alt" horiz-adv-x="1187" 
d="M748 1044q0 198 -51 281.5t-167 83.5q-87 0 -128.5 -42.5t-41.5 -100.5q0 -19 11 -52h53q16 -43 16 -90q0 -66 -46.5 -106.5t-117.5 -40.5q-80 0 -121.5 49t-41.5 125q0 128 119.5 213.5t336.5 85.5q234 0 363 -93t129 -292q0 -77 -26.5 -142t-69.5 -108.5t-100 -73.5
t-116.5 -43.5t-119.5 -13.5q-86 0 -142 25v-344h-55v362q-45 28 -45 72q0 21 13 36t36 15q27 0 43 -26.5t8 -71.5q49 -17 91 -17q83 0 126.5 71t43.5 238zM313 127q0 64 40 106.5t108 42.5t108.5 -36.5t40.5 -108.5q0 -69 -38 -110t-109 -41q-78 0 -114 42t-36 105z" />
    <glyph glyph-name="questiondown.alt" horiz-adv-x="1187" 
d="M432 -70q0 -198 50.5 -281t166.5 -83q87 0 128.5 42.5t41.5 100.5q0 21 -10 51h-53q-17 46 -17 90q0 66 47 107t117 41q81 0 122.5 -49.5t41.5 -124.5q0 -128 -120 -213.5t-337 -85.5q-233 0 -362 93t-129 292q0 77 26.5 142t69.5 108.5t100 73.5t116.5 43.5t119.5 13.5
q85 0 141 -25v344h56v-362q45 -28 45 -72q0 -20 -13.5 -35.5t-36.5 -15.5q-27 0 -43 26.5t-8 71.5q-49 17 -90 17q-83 0 -126.5 -71.5t-43.5 -238.5zM866 848q0 -64 -39.5 -107t-107.5 -43t-109 37t-41 109q0 69 38.5 110t109.5 41q78 0 113.5 -42t35.5 -105z" />
    <glyph glyph-name="at.case" horiz-adv-x="1783" 
d="M889 1106q106 0 186 -70l31 56h197l-66 -373q-25 -156 -25 -217q0 -81 23.5 -115.5t75.5 -34.5q104 0 182 115t78 311q0 282 -172 454.5t-451 172.5q-148 0 -281 -52t-233 -146t-158.5 -235.5t-58.5 -309.5q0 -141 42 -256t112 -192t164 -129.5t194 -75.5t205 -23
q267 0 475 166l41 -48q-98 -89 -234.5 -135.5t-295.5 -46.5q-122 0 -234.5 26.5t-213 84.5t-174.5 141.5t-117.5 206t-43.5 270.5q0 172 58.5 322t163 259.5t257 172.5t332.5 63q151 0 278.5 -44.5t221.5 -129.5t146.5 -216t52.5 -296q0 -244 -110 -371.5t-302 -127.5
q-109 0 -165.5 38.5t-78.5 108.5q-68 -143 -231 -143q-139 0 -209 93.5t-70 248.5q0 112 37.5 205.5t97 151t131 89t142.5 31.5zM993 569l66 414q-67 70 -139 70q-51 0 -91 -37.5t-63.5 -93.5t-39 -127.5t-21 -132t-5.5 -113.5q0 -104 25.5 -150.5t79.5 -46.5q70 0 119.5 63
t68.5 154z" />
    <glyph glyph-name="Q.alt" horiz-adv-x="1511" 
d="M84 698q0 353 181.5 555.5t508.5 202.5q319 0 487.5 -191.5t168.5 -541.5q0 -325 -145 -516.5t-433 -218.5v-8l324 -35q90 -90 161 -141.5t133 -51.5q78 0 158 62l33 -43q-106 -92 -206 -135.5t-173 -43.5q-93 0 -168.5 43.5t-179.5 149.5q-57 57 -79 78t-62.5 55
t-69.5 47t-59 15q-282 22 -431 206.5t-149 511.5zM1055 717q0 110 -2.5 185t-9.5 151.5t-20 125.5t-34.5 93.5t-53 68.5t-75 38t-100.5 14q-58 0 -102.5 -14.5t-76.5 -39.5t-54.5 -70.5t-36 -96.5t-21 -129t-10 -156t-2.5 -189q0 -98 3 -170.5t10.5 -144.5t21.5 -121.5
t37 -93.5t54.5 -70t75.5 -40.5t101 -14.5q76 0 128.5 26.5t85 75t50.5 135t24.5 186.5t6.5 251z" />
    <glyph glyph-name="R.alt" horiz-adv-x="1431" 
d="M682 711h-133v-658h153v-53h-649v53h146v1327h-146v54h658q103 0 178 -7t148 -28.5t118.5 -58t73.5 -98.5t28 -148q0 -181 -122 -272.5t-379 -108.5q25 -97 103.5 -134t201.5 -12l102 -336q10 -32 13.5 -43t13.5 -32.5t18.5 -29t24 -15t35.5 -7.5q48 0 64 40t18 141
l55 -2q5 -150 -55 -226.5t-222 -76.5q-70 0 -120.5 15.5t-83 47.5t-51.5 67.5t-35 88.5zM549 1380v-616h10q95 0 157 18.5t98 59t50.5 96.5t14.5 139q0 173 -59.5 238t-221.5 65h-49z" />
    <glyph glyph-name="g.calt" horiz-adv-x="1073" 
d="M895 662q0 -168 -108.5 -259.5t-294.5 -91.5q-69 0 -160 17q-101 -67 -101 -97q0 -10 9.5 -15.5t35.5 -9t72 -3.5h227q76 0 137 -7.5t121.5 -29t101.5 -57t66 -94.5t25 -138q0 -179 -135.5 -284t-421.5 -105q-129 0 -219 15t-141 45.5t-73 70.5t-22 94q0 119 156 164
l106 -53q-18 -53 -18 -111q0 -29 4.5 -51t19.5 -46t40.5 -39.5t72 -25.5t109.5 -10q154 0 242 60t88 159q0 82 -57.5 115t-213.5 33h-215q-151 0 -216.5 50t-65.5 126q0 75 46.5 129t161.5 131q-109 37 -161 111.5t-52 195.5q0 151 107.5 247.5t320.5 96.5q109 0 193 -34
q-8 127 54.5 213t178.5 86q70 0 117 -40t47 -110q0 -55 -33 -92t-88 -37q-40 0 -70 21t-40 47l45 55q0 53 -51 53q-44 0 -76 -53.5t-25 -169.5q154 -92 154 -272zM367 649q0 -116 13 -178t36.5 -83t66.5 -21q41 0 63 19t35 82t13 183q0 123 -12.5 188.5t-34.5 86t-62 20.5
q-42 0 -65.5 -20.5t-38 -87t-14.5 -189.5z" />
    <glyph glyph-name="j.calt" horiz-adv-x="620" 
d="M485 975v-901q0 -111 -13.5 -195t-49.5 -159.5t-95.5 -124.5t-154.5 -78.5t-223 -32.5l-12 49q41 7 71 18t58.5 35.5t46 62t28.5 97t11 139.5v1037h-170v53h503zM98 1307q0 75 47 124.5t142 49.5q86 0 134 -43.5t48 -128.5q0 -78 -46 -126t-140 -48q-52 0 -89.5 15.5
t-57.5 41.5t-29 54.5t-9 60.5z" />
    <glyph glyph-name="y.calt" horiz-adv-x="1087" 
d="M12 922v53h563v-53h-120l227 -662l233 662h-131v53h303v-53h-100l-391 -1088q-72 -202 -139 -274t-191 -72q-113 0 -175 53.5t-62 143.5q0 76 42.5 120.5t110.5 44.5q72 0 113 -33t41 -98q0 -29 -12 -73h-72q-14 -25 -14 -49q0 -48 69 -48q73 0 121 73.5t109 250.5
l43 127h-123l-355 922h-90z" />
    <glyph glyph-name="hyphen.case" horiz-adv-x="692" 
d="M94 659v119h504v-119h-504z" />
    <glyph glyph-name="idotaccent" horiz-adv-x="636" 
d="M119 1309q0 74 46.5 123t141.5 49q86 0 134 -43.5t48 -128.5q0 -78 -46 -126t-140 -48q-100 0 -142 51t-42 123zM25 975h462v-922h125v-53h-581v53h123v869h-129v53z" />
    <glyph glyph-name="jcircumflex.calt" horiz-adv-x="620" 
d="M485 975v-901q0 -111 -13.5 -195t-49.5 -159.5t-95.5 -124.5t-154.5 -78.5t-223 -32.5l-12 49q41 7 71 18t58.5 35.5t46 62t28.5 97t11 139.5v1037h-170v53h503zM-8 1116l182 363q62 32 121 32q91 0 131 -98l125 -299l-23 -14l-256 219l-256 -221z" />
    <glyph glyph-name="Racute.alt" horiz-adv-x="1431" 
d="M682 711h-133v-658h153v-53h-649v53h146v1327h-146v54h658q103 0 178 -7t148 -28.5t118.5 -58t73.5 -98.5t28 -148q0 -181 -122 -272.5t-379 -108.5q25 -97 103.5 -134t201.5 -12l102 -336q10 -32 13.5 -43t13.5 -32.5t18.5 -29t24 -15t35.5 -7.5q48 0 64 40t18 141
l55 -2q5 -150 -55 -226.5t-222 -76.5q-70 0 -120.5 15.5t-83 47.5t-51.5 67.5t-35 88.5zM549 1380v-616h10q95 0 157 18.5t98 59t50.5 96.5t14.5 139q0 173 -59.5 238t-221.5 65h-49zM473 1528l266 325l80 -10q96 -15 96 -100q0 -70 -90 -107l-327 -135z" />
    <glyph glyph-name="Rcommaaccent.alt" horiz-adv-x="1431" 
d="M682 711h-133v-658h153v-53h-649v53h146v1327h-146v54h658q103 0 178 -7t148 -28.5t118.5 -58t73.5 -98.5t28 -148q0 -181 -122 -272.5t-379 -108.5q25 -97 103.5 -134t201.5 -12l102 -336q10 -32 13.5 -43t13.5 -32.5t18.5 -29t24 -15t35.5 -7.5q48 0 64 40t18 141
l55 -2q5 -150 -55 -226.5t-222 -76.5q-70 0 -120.5 15.5t-83 47.5t-51.5 67.5t-35 88.5zM549 1380v-616h10q95 0 157 18.5t98 59t50.5 96.5t14.5 139q0 173 -59.5 238t-221.5 65h-49zM680 -573l-35 43q74 61 98.5 101t24.5 77q0 33 -29 45l-49 -49q-90 35 -90 120
q0 52 37 85.5t94 33.5q68 0 102.5 -45t34.5 -112q0 -160 -188 -299z" />
    <glyph glyph-name="Rcaron.alt" horiz-adv-x="1431" 
d="M682 711h-133v-658h153v-53h-649v53h146v1327h-146v54h658q103 0 178 -7t148 -28.5t118.5 -58t73.5 -98.5t28 -148q0 -181 -122 -272.5t-379 -108.5q25 -97 103.5 -134t201.5 -12l102 -336q10 -32 13.5 -43t13.5 -32.5t18.5 -29t24 -15t35.5 -7.5q48 0 64 40t18 141
l55 -2q5 -150 -55 -226.5t-222 -76.5q-70 0 -120.5 15.5t-83 47.5t-51.5 67.5t-35 88.5zM549 1380v-616h10q95 0 157 18.5t98 59t50.5 96.5t14.5 139q0 173 -59.5 238t-221.5 65h-49zM987 1833l-219 -279q-58 -32 -113 -32q-53 0 -84.5 20t-58.5 62l-154 231l21 23l291 -140
l299 140z" />
    <glyph glyph-name="s_p" horiz-adv-x="2054" 
d="M1335 1223v-404q91 176 295 176q179 0 277 -127.5t98 -378.5q0 -509 -420 -509q-100 0 -156 26t-90 80v-520h265v-53h-727v53h129v1675q-34 11 -72.5 39.5t-74 60t-73.5 62t-83 50.5t-91 20q-90 0 -138 -53.5t-48 -143.5q0 -91 70.5 -189t132.5 -133q40 -20 63 -20
q20 0 30.5 14t16.5 51h41v-311h-43q-47 128 -121 189t-180 61q-94 0 -143 -31.5t-49 -87.5q0 -27 12.5 -48.5t30 -35t51.5 -27t59.5 -20.5t72.5 -19q6 -1 9.5 -2t9 -2.5t9.5 -2.5q42 -11 70.5 -19.5t67.5 -23.5t65 -31.5t54.5 -42.5t45.5 -57t28 -73.5t11 -92.5
q0 -164 -100.5 -253t-276.5 -89q-133 0 -252 61q-24 16 -37 16q-19 0 -32.5 -16.5t-28.5 -60.5h-43v360h45q44 -162 129 -229.5t217 -67.5q108 0 159.5 36.5t51.5 96.5q0 29 -12.5 51t-26.5 35.5t-53 28.5t-60.5 21t-80.5 21q-4 1 -6.5 1.5t-6 1.5t-6.5 2
q-61 15 -100.5 27.5t-91 38.5t-81.5 57t-51.5 82t-21.5 116q0 150 97.5 243t258.5 93q42 0 76 -6q-144 156 -144 287q0 110 69 183t181 73q54 0 104.5 -19.5t89.5 -49.5t72.5 -60.5t67.5 -59.5t60 -40q30 129 117 192.5t218 63.5q213 0 213 -152q0 -84 -62 -133t-157 -51z
M1526 901q-74 0 -131.5 -80.5t-57.5 -206.5v-335q0 -93 45 -161.5t125 -68.5q88 0 119 95t31 343q0 168 -12 255.5t-39 123t-80 35.5zM1335 1405v-125q66 2 108 37t42 98q0 42 -21.5 64t-52.5 22q-39 0 -57.5 -28t-18.5 -68z" />
    <glyph glyph-name="s_h" horiz-adv-x="2109" 
d="M70 -20v360h45q44 -162 129 -229.5t217 -67.5q108 0 159.5 36.5t51.5 96.5q0 29 -12.5 51t-26.5 35.5t-53 28.5t-60.5 21t-80.5 21q-4 1 -6.5 1.5t-6 1.5t-6.5 2q-61 15 -100.5 27.5t-91 38.5t-81.5 57t-51.5 82t-21.5 116q0 150 97.5 243t258.5 93q5 0 74 -6
q-142 154 -142 287q0 110 69 183t181 73q54 0 104.5 -19.5t89.5 -49.5t72.5 -60.5t67.5 -59.5t60 -40q30 129 117 192.5t218 63.5q213 0 213 -152q0 -84 -62 -133t-157 -51v-426q81 198 318 198q315 0 315 -342v-600h125v-53h-561v53h102v635q0 123 -21.5 166t-68.5 43
q-87 0 -148 -89t-61 -216v-539h105v-53h-561v53h122v1188q-39 14 -89.5 54.5t-90.5 78.5t-97 68.5t-112 30.5q-90 0 -138 -53.5t-48 -143.5q0 -93 65.5 -185t139.5 -137q37 -22 61 -22q20 0 30.5 15t16.5 52h41v-311h-43q-47 128 -121 189t-180 61q-94 0 -143 -31.5
t-49 -87.5q0 -27 12.5 -48.5t30 -35t51.5 -27t59.5 -20.5t72.5 -19q6 -1 9.5 -2t9 -2.5t9.5 -2.5q42 -11 70.5 -19.5t67.5 -23.5t65 -31.5t54.5 -42.5t45.5 -57t28 -73.5t11 -92.5q0 -164 -100.5 -253t-276.5 -89q-133 0 -252 61q-24 16 -37 16q-19 0 -32.5 -16.5
t-28.5 -60.5h-43zM1335 1405v-125q66 2 108 37t42 98q0 42 -21.5 64t-52.5 22q-39 0 -57.5 -28t-18.5 -68z" />
    <glyph glyph-name="c_t" horiz-adv-x="1744" 
d="M1077 274v648h-123v53h123v266q-34 11 -72 39.5t-72 60t-71 62t-81.5 50.5t-90.5 20q-90 0 -138 -53.5t-48 -143.5q0 -140 160 -287q134 -18 205 -85t71 -169q0 -89 -43 -135.5t-117 -46.5q-75 0 -120.5 41.5t-45.5 118.5q0 33 11 73h65q12 34 12 66q0 40 -28.5 67
t-85.5 27q-71 0 -112.5 -42t-63 -144.5t-21.5 -280.5q0 -231 50 -324.5t175 -93.5q65 0 115.5 23.5t81.5 64.5t49 82.5t29 90.5l55 -9q-7 -33 -14.5 -59t-23.5 -62t-36 -63.5t-53 -57t-73.5 -48.5t-98.5 -31t-127 -12q-230 0 -354.5 127.5t-124.5 365.5q0 255 141.5 388.5
t390.5 133.5h7q-140 151 -140 281q0 110 69 183t181 73q54 0 104.5 -19.5t89.5 -49.5t72 -60.5t67 -59.5t60 -40q30 129 117.5 192.5t218.5 63.5q213 0 213 -152q0 -84 -62 -133t-157 -51v-248h270v-53h-270v-670q0 -93 21.5 -135.5t78.5 -42.5q68 0 111 57t57 162l50 -6
q-7 -66 -25 -116.5t-53.5 -96t-98 -70t-149.5 -24.5q-76 0 -132 13t-102.5 45t-70 91t-23.5 145zM1413 1405v-125q66 2 108 37t42 98q0 42 -21.5 64t-52.5 22q-39 0 -57.5 -28t-18.5 -68z" />
    <glyph glyph-name="c_h" horiz-adv-x="2234" 
d="M588 946q-71 0 -112.5 -42t-63 -144.5t-21.5 -280.5q0 -231 50 -324.5t175 -93.5q65 0 115.5 23.5t81.5 64.5t49 82.5t29 90.5l55 -9q-7 -33 -14.5 -59t-23.5 -62t-36 -63.5t-53 -57t-73.5 -48.5t-98.5 -31t-127 -12q-230 0 -354.5 127.5t-124.5 365.5q0 255 141.5 388.5
t390.5 133.5q110 0 205 -53q-17 39 -42 88.5t-53.5 103t-39.5 76.5q-102 -24 -178 -24q-97 0 -160 45t-63 135q0 76 49 120t125 44q87 0 147.5 -65t118.5 -187q177 44 361 121t245 137h172v-739q81 198 318 198q315 0 315 -342v-600h125v-53h-561v53h102v635
q0 123 -21.5 166t-68.5 43q-87 0 -148 -89t-61 -216v-539h105v-53h-561v53h122v1323q-192 -91 -417 -149q20 -40 51 -98t68.5 -127.5t52.5 -96.5q19 -34 29 -55t19 -55.5t9 -69.5q0 -82 -42.5 -127t-115.5 -45q-75 0 -120.5 41.5t-45.5 118.5q0 33 11 73h65q12 34 12 66
q0 40 -28.5 67t-85.5 27zM614 1264l-15.5 31t-18.5 35.5t-19 33t-23 34.5t-25 27t-30 24.5t-32.5 14t-38.5 6.5q-44 0 -72.5 -26.5t-28.5 -69.5q0 -63 44.5 -96t117.5 -33q54 0 141 19z" />
    </font>
</defs>
</svg>
